<?xml version="1.0" standalone="no"?>
<!DOCTYPE svg PUBLIC "-//W3C//DTD SVG 1.1//EN" "http://www.w3.org/Graphics/SVG/1.1/DTD/svg11.dtd" >
<!--
2015-7-13: Created with FontForge (http://fontforge.org)
-->
<svg xmlns="http://www.w3.org/2000/svg" xmlns:xlink="http://www.w3.org/1999/xlink" version="1.1">
<metadata>
Created by FontForge 20150618 at Mon Jul 13 12:22:50 2015
 By Joen Asmussen
Copyright (c) 2015, Joen Asmussen
</metadata>
<defs>
<font id="Noticons" horiz-adv-x="2048" >
  <font-face 
    font-family="Noticons"
    font-weight="400"
    font-stretch="normal"
    units-per-em="2048"
    panose-1="2 0 5 3 0 0 0 0 0 0"
    ascent="2048"
    descent="0"
    bbox="-0.0140489 0 2048.01 2048"
    underline-thickness="102.4"
    underline-position="-204.8"
    unicode-range="U+0020-F8D9"
  />
    <missing-glyph />
    <glyph glyph-name="space" unicode=" " horiz-adv-x="200" 
 />
    <glyph glyph-name="uniF8A1" unicode="&#xf8a1;" 
d="M1536 1280c0 -188.928 -103.68 -351.488 -256 -439.808v-456.192h-128v-128h-256v128h-128v456.192c-152.32 88.3193 -256 250.88 -256 439.808c0 282.752 229.248 512 512 512s512 -229.248 512 -512zM1152 512v128h-256v-128h256zM1152 919.552
c148.864 52.8643 256 193.536 256 360.448c0 212.096 -171.904 384 -384 384s-384 -171.904 -384 -384c0 -166.912 107.136 -307.584 256 -360.448v-151.552h256v151.552z" />
    <glyph glyph-name="uniF413" unicode="&#xf413;" 
d="M256 1280c565.504 0 1024 -458.496 1024 -1024h-256c0 423.552 -344.448 768 -768 768v256zM256 1792c848.256 0 1536 -687.744 1536 -1536h-256c0 705.792 -574.208 1280 -1280 1280v256zM448 640c106.112 0 192 -86.0156 192 -192s-85.8877 -192 -192 -192
s-192 86.0156 -192 192s85.8877 192 192 192z" />
    <glyph glyph-name="uniF8D7" unicode="&#xf8d7;" 
d="M1817.6 1267.2c140.801 -128 140.801 -345.601 12.8008 -486.4l-422.4 -422.399c-64 -64 -179.2 -64 -243.2 0l537.601 537.6c64 64 64 179.2 0 243.2s-179.2 64 -243.2 0l-550.4 -550.4c-38.3994 -38.3994 -89.5996 -38.3994 -128 0
c-38.3994 38.4004 -38.3994 89.6006 0 128l550.4 550.4c128 140.8 345.6 140.8 486.399 0zM1638.4 1088c25.5996 -38.4004 25.5996 -89.5996 -12.8008 -128l-550.399 -550.4c-128 -140.8 -345.601 -140.8 -486.4 0c-38.3994 38.4004 -38.3994 89.6006 0 128
c38.4004 38.4004 89.6006 38.4004 128 0c64 -64 179.2 -64 243.2 0l550.4 550.4c38.3994 38.4004 89.5996 38.4004 128 0zM1446.4 1638.4c38.3994 -38.4004 38.3994 -89.6006 12.7998 -128c-38.4004 -38.4004 -89.6006 -38.4004 -128 0c-64 64 -179.2 64 -243.2 0
l-550.4 -550.4c-38.3994 -38.4004 -89.5996 -38.4004 -128 0c-38.3994 38.4004 -38.3994 89.5996 0 128l550.4 550.4c128 140.8 345.6 140.8 486.4 0zM1267.2 1459.2c38.3994 -38.4004 38.3994 -89.6006 -12.7998 -128l-550.4 -550.4c-128 -140.8 -345.6 -140.8 -486.4 0
c-140.8 128 -140.8 345.601 0 486.4l422.4 422.399c64 64 179.2 64 243.2 0l-537.601 -537.6c-64 -64 -64 -179.2 0 -243.2s179.2 -64 243.2 0l550.4 550.4c38.3994 38.3994 89.5996 38.3994 128 0z" />
    <glyph glyph-name="uniF462" unicode="&#xf462;" 
d="M618.502 1337l-213.004 142.004l-303.335 -455.002l303.335 -455.002l213.004 142.004l-208.665 312.998zM1642.5 1479l-213.004 -142.004l208.665 -312.998l-208.665 -312.998l213.004 -142.004l303.335 455.002zM771.821 543.045l248.357 -62.0898l256 1024
l-248.357 62.0898z" />
    <glyph glyph-name="uniF815" unicode="&#xf815;" 
d="M1022.85 1847.55c545.28 0 897.152 -384.128 897.152 -798.208v-50.6875c0 -407.168 -351.872 -798.208 -897.152 -798.208c-542.848 0 -894.848 391.04 -894.848 798.208v50.6875c0 414.08 352 798.208 894.848 798.208zM1630.08 1007.87v36.8643
c0 296.704 -216.192 561.279 -607.36 561.279c-391.04 0 -604.928 -264.575 -604.928 -561.279v-36.8643c0 -296.576 213.888 -565.888 604.928 -565.888c391.296 0 607.36 269.312 607.36 565.888zM1212.29 1314.56c51.7119 -33.5352 66.3037 -102.911 32.6396 -155.008
l-262.271 -406.271c-33.6641 -52.2246 -103.04 -67.3281 -154.752 -33.9199c-51.7119 33.5361 -66.4326 102.783 -32.6406 155.008l262.272 406.271c33.5361 52.0967 102.784 67.2002 154.752 33.9199z" />
    <glyph glyph-name="uniF403" unicode="&#xf403;" 
d="M1541.38 1530.62l506.624 -506.624l-506.624 -506.624c-131.456 -134.272 -314.752 -217.728 -517.376 -217.728c-202.752 0 -386.048 83.4551 -517.504 217.983l-506.496 506.368v0l506.496 506.496c131.456 134.4 314.624 217.984 517.504 217.984
c202.752 0 385.92 -83.584 517.376 -217.856zM1404.42 651.776l372.096 372.224l-370.943 370.944c-102.528 104.704 -237.568 161.536 -381.568 161.536c-144.128 0 -279.168 -56.9609 -380.288 -160.385l-372.096 -372.096l370.688 -370.56
c102.528 -104.96 237.696 -161.792 381.824 -161.792c144 0 279.168 56.832 380.288 160.128zM1408 1024zM640 1024c0 212.096 172.032 384 384 384s384 -171.904 384 -384c0 -211.968 -172.032 -384 -384 -384s-384 172.032 -384 384zM768 1152
c0 -70.6562 57.2158 -128 128 -128c70.6562 0 128 57.3438 128 128s-57.3438 128 -128 128c-70.7842 0 -128 -57.3438 -128 -128z" />
    <glyph glyph-name="uniF505" unicode="&#xf505;" 
d="M256 1408v256h256v-256h-256zM768 1664h1024v-256h-1024v256zM256 896v256h256v-256h-256zM1408 1152v-256h-640v256h640zM256 384v256h256v-256h-256zM768 384v256h896v-256h-896z" />
    <glyph glyph-name="uniF805" unicode="&#xf805;" 
d="M640 896h384l-512 -512l-512 512h384v640h704l-256 -256h-192v-384zM1536 1536l512 -512h-384v-640h-704l256 256h192v384h-384z" />
    <glyph glyph-name="uniF802" unicode="&#xf802;" 
d="M1024 1664c353.5 0 640 -286.5 640 -640s-286.5 -640 -640 -640s-640 286.5 -640 640s286.5 640 640 640zM1408 896v256h-768v-256h768z" />
    <glyph glyph-name="uniF50F" unicode="&#xf50f;" 
d="M1920 1024l-384 -384v256h-384v-384h256l-384 -384l-384 384h256v384h-384v-256l-384 384l384 384v-256h384v384h-256l384 384l384 -384h-256v-384h384v256z" />
    <glyph glyph-name="uniF307" unicode="&#xf307;" 
d="M768 640v128h128v-128h-128zM768 896v128h128v-128h-128zM768 1152v128h128v-128h-128zM512 640v128h128v-128h-128zM512 896v128h128v-128h-128zM1280 896v128h128v-128h-128zM1024 1152v128h128v-128h-128zM1280 1152v128h128v-128h-128zM1408 1664h256v-1280h-1408
v1280h256v128h128v-128h640v128h128v-128zM1536 640v640c0 70.7842 -57.2158 128 -128 128h-896c-70.6562 0 -128 -57.2158 -128 -128v-640c0 -70.7842 57.3438 -128 128 -128h896c70.7842 0 128 57.2158 128 128zM1024 896v128h128v-128h-128zM1024 640v128h128v-128h-128z
" />
    <glyph glyph-name="uniF8A7" unicode="&#xf8a7;" 
d="M1216 888.96c43.0078 0 77.9521 35.0723 77.9521 78.0801s-34.9443 77.9521 -77.9521 77.9521s-77.9521 -35.0723 -77.9521 -78.0801s34.9443 -77.9521 77.9521 -77.9521zM1089.02 1527.04c38.9111 -190.976 360.96 -471.04 361.088 -704
c0 -97.9199 -42.1123 -189.952 -109.057 -258.944c-129.023 -132.992 -376.96 -132.992 -507.008 0c-65.0234 66.9443 -109.056 156.929 -109.056 258.944c0 232.96 331.008 513.024 364.032 704z" />
    <glyph glyph-name="uniF8B1" unicode="&#xf8b1;" 
d="M1747.46 1089.79c36.4795 0 65.792 -29.5684 65.792 -65.9199c0 -36.3525 -29.4404 -65.792 -65.792 -65.792h-194.816c-11.9033 -95.8721 -48.3838 -183.552 -104.447 -256.896l134.016 -134.016c28.1602 -28.0322 28.1602 -73.3438 0 -101.504
c-28.0322 -28.0322 -73.3438 -28.0322 -101.504 0l-134.016 134.016c-73.3447 -55.8076 -160.896 -92.2881 -256.896 -104.319v-194.688c0 -36.6074 -29.4404 -65.9199 -65.792 -65.9199s-65.792 29.4404 -65.792 65.9199v194.816
c-95.8721 11.9033 -183.424 48.3838 -256.768 104.447l-134.017 -134.016c-28.0322 -28.1602 -73.4717 -28.1602 -101.504 0c-28.0322 28.0322 -28.0322 73.3438 0 101.504l133.888 134.017c-55.9355 73.3438 -92.2881 160.768 -104.319 256.768h-194.944
c-36.4795 0 -65.792 29.4404 -65.792 65.792s29.3125 65.792 65.792 65.792h194.944c12.0312 95.8721 48.5117 183.424 104.447 256.768l-134.016 134.017c-28.0322 28.0322 -28.0322 73.4717 0 101.504s73.4717 28.0322 101.504 0l133.888 -134.016
c73.3447 55.9355 160.896 92.5439 256.896 104.447v195.072c0 36.3516 29.4404 65.6641 65.792 65.6641s65.792 -29.4404 65.792 -65.6641v-195.072c96 -11.9033 183.424 -48.5117 256.896 -104.319l134.016 134.016c28.1602 28.0322 73.4717 28.0322 101.504 0
c28.1602 -28.0322 28.1602 -73.4717 0 -101.504l-134.016 -134.016c55.9355 -73.3447 92.416 -160.896 104.447 -256.896h194.816zM646.4 1300.1c-44.6729 -60.6719 -73.9844 -132.352 -85.1201 -210.432h251.136c3.45605 11.1357 7.42383 21.7598 12.416 32z
M646.272 747.776l178.56 178.56c-5.12012 10.2402 -9.08789 20.8643 -12.5439 31.8721h-251.008c11.1357 -78.0801 40.4473 -149.632 84.9922 -210.432zM958.208 561.152v251.136c-11.1357 3.58398 -21.7598 7.55176 -32 12.5439l-178.432 -178.56
c60.7998 -44.6729 132.479 -73.9844 210.432 -85.1201zM958.208 1235.71v251.008c-77.9521 -11.1357 -149.504 -40.4473 -210.304 -85.1201l178.304 -178.432c10.3682 4.99219 20.9922 9.08789 32 12.5439zM1089.79 1486.72v-250.88
c11.0078 -3.45605 21.7598 -7.42383 32 -12.5439l178.432 178.304c-60.7998 44.6729 -132.479 73.9844 -210.432 85.1201zM1089.79 561.152c77.9521 11.1357 149.632 40.4473 210.432 85.1201l-178.432 178.56c-10.2402 -4.99219 -20.9922 -9.21582 -32 -12.5439v-251.136z
M1401.6 747.776c44.6729 60.6719 73.9844 132.352 85.248 210.432h-251.008c-3.58398 -11.0078 -7.55176 -21.7598 -12.5439 -32zM1235.71 1089.79h251.136c-11.1357 78.0801 -40.4473 149.632 -85.1201 210.432l-178.432 -178.432
c4.99219 -10.2402 8.95996 -20.9922 12.416 -32z" />
    <glyph glyph-name="uniF801" unicode="&#xf801;" 
d="M1024 1664c353.5 0 640 -286.5 640 -640s-286.5 -640 -640 -640s-640 286.5 -640 640s286.5 640 640 640zM1408 896v256h-256v256h-256v-256h-256v-256h256v-256h256v256h256z" />
    <glyph glyph-name="uniF817" unicode="&#xf817;" 
d="M1212.29 1314.56c51.7119 -33.5352 66.3037 -102.911 32.6396 -155.008l-262.271 -406.271c-33.6641 -52.2246 -103.04 -67.3281 -154.752 -33.9199c-51.7119 33.5361 -66.4326 102.783 -32.6406 155.008l262.272 406.271
c33.5361 52.0967 102.784 67.2002 154.752 33.9199z" />
    <glyph glyph-name="uniF457" unicode="&#xf457;" 
d="M1024 1792c424.064 0 768 -343.936 768 -768s-343.936 -768 -768 -768c-424.192 0 -768 343.936 -768 768s343.808 768 768 768zM1024 512c70.6562 0 128 57.4717 128 128s-57.3438 128 -128 128c-70.7842 0 -128 -57.4717 -128 -128s57.2158 -128 128 -128z
M1342.72 1155.84c24.832 38.9121 37.248 85.1201 37.1201 138.752c0 74.4961 -27.6475 133.504 -83.7119 176.641c-55.9355 43.2637 -133.632 64.7676 -231.936 64.7676c-119.809 0 -234.496 -31.2324 -344.32 -93.9521l91.9043 -180.096
c89.2158 47.2314 167.168 70.9121 233.983 70.9121c26.752 0 48.5127 -5.37598 65.2803 -16.2559c17.2803 -10.752 25.4717 -25.4727 25.4717 -44.0322c0 -23.2959 -8.06348 -44.0322 -23.5518 -62.208c-16 -18.0479 -41.4717 -38.4004 -77.1836 -60.9277
c-45.1846 -28.1602 -76.416 -57.0889 -94.3359 -87.04c-17.5361 -29.6963 -26.3682 -66.4326 -26.3682 -109.44v-56.96h203.647v34.0479c0 18.6885 5.50391 35.2002 17.2803 48.8965c12.0322 14.0801 40.96 36.0957 86.9121 66.0479
c55.04 34.8154 94.5918 71.6797 119.808 110.848z" />
    <glyph glyph-name="uniF807" unicode="&#xf807;" 
d="M256 1664h1408v-1152h-1408v1152zM1536 640v768h-1152v-768h1152zM1408 1280l-448 -512l-448 512h896z" />
    <glyph glyph-name="uniF515" unicode="&#xf515;" 
d="M1024 1920c494.848 0 896 -401.152 896 -896s-401.152 -896 -896 -896s-896 401.152 -896 896s401.152 896 896 896zM1387.52 601.216c29.4404 0 55.6807 23.6807 55.8086 56.0645c0 33.1514 -13.0557 46.4639 -35.4561 59.5195
c-150.4 90.1123 -325.12 135.168 -521.216 135.168c-114.433 0 -224.769 -14.4639 -335.36 -39.6797c-27.1357 -5.12012 -48.7676 -23.8076 -48.7676 -61.4404c0 -29.1836 22.6553 -56.3193 56.7041 -56.3193c11.0078 0 29.4395 5.75977 44.1592 8.83203
c90.2402 18.6875 186.752 30.9756 282.624 30.9756c171.776 0 333.696 -41.3438 463.616 -119.808c13.5684 -8.32031 23.4238 -13.3125 37.8877 -13.3125zM1485.18 838.4c38.9121 0 69.7607 31.3594 69.8887 70.0156c0 31.8721 -11.0078 53.6318 -40.832 70.7842
c-178.433 106.752 -405.376 165.12 -639.872 165.12c-149.76 0 -252.544 -21.248 -353.28 -48.8965c-37.248 -10.624 -55.6797 -36.7354 -55.6797 -74.8799c0 -38.7842 31.3594 -70.1436 69.8877 -70.1436c16.3838 0 26.1123 5.11914 43.5205 10.1113
c81.1514 21.5039 179.071 37.376 292.479 37.376c221.185 0 423.168 -57.4717 568.96 -144c13.3125 -7.55176 25.6006 -15.4873 44.9277 -15.4873zM1596.29 1114.24c45.3115 0 84.6084 35.0713 84.3516 83.8398c0 42.752 -18.9434 66.0479 -46.208 81.4082
c-202.111 118.912 -478.976 172.928 -742.016 172.928c-155.008 0 -297.472 -17.5361 -425.216 -55.168c-32.5117 -9.59961 -62.7197 -36.9922 -62.7197 -85.6318c0 -47.8721 36.7354 -85.6318 84.4795 -85.6318c16.5117 0 33.0244 6.39941 46.0801 9.72754
c113.024 30.5918 236.416 43.0078 357.888 43.0078c243.328 0 495.104 -53.5039 657.28 -150.784c17.0244 -9.34375 27.7764 -13.6953 46.0801 -13.6953z" />
    <glyph glyph-name="uniF448" unicode="&#xf448;" 
d="M512 384v1280h384v-1280h-384zM1152 1664h384v-1280h-384v1280z" />
    <glyph glyph-name="uniF453" unicode="&#xf453;" 
d="M1536 2048c141.312 0 256 -114.688 256 -256v-1536c0 -141.312 -114.688 -256 -256 -256h-1024c-141.312 0 -256 114.688 -256 256v1536c0 141.312 114.688 256 256 256h1024zM1024 128c70.7842 0 128 57.2158 128 128s-57.2158 128 -128 128
c-70.6562 0 -128 -57.2158 -128 -128s57.3438 -128 128 -128zM1536 512v1280h-1024v-1280h1024z" />
    <glyph glyph-name="uniF8B6" unicode="&#xf8b6;" 
d="M512 1536h1024v-256h-1024v256zM1152 1152v-128h-640v128h640zM1280 1024v128h256v-128h-256zM896 768v128h640v-128h-640zM768 896v-128h-256v128h256zM512 512v128h768v-128h-768z" />
    <glyph glyph-name="uniF419" unicode="&#xf419;" 
d="M0 256v256h2048v-256h-2048zM0 1792h2048v-256h-2048v256zM0 896v256h2048v-256h-2048z" />
    <glyph glyph-name="uniF8B3" unicode="&#xf8b3;" 
d="M640 1536v-128h-256v-256h-128v256h-256v128h256v256h128v-256h256z" />
    <glyph glyph-name="uniF423" unicode="&#xf423;" 
d="M567.936 1440.9l-267.136 -480.896h403.2v-384h-128v256h-492.8l372.864 671.104zM1644.8 960h403.2v-384h-128v256h-492.8l372.864 671.104l112 -62.207zM1088 1344c176.768 0 320 -143.232 320 -320s-143.232 -320 -320 -320s-320 143.232 -320 320
s143.232 320 320 320zM1088 832c105.856 0 192 86.1436 192 192s-86.1436 192 -192 192s-192 -86.1436 -192 -192s86.1436 -192 192 -192z" />
    <glyph glyph-name="uniF512" unicode="&#xf512;" 
d="M1920 1280l-555.136 -387.968l212.863 -636.032l-553.728 394.496l-553.728 -394.496l212.991 636.032l-555.264 387.968h685.312l210.688 640l210.688 -640h685.312z" />
    <glyph glyph-name="uniF417" unicode="&#xf417;" 
d="M960 1792c318.08 0 576 -257.92 576 -576c0 -159.232 -64.6396 -303.36 -169.088 -407.68l-406.912 -407.04l-406.912 407.04c-104.448 104.319 -169.088 248.447 -169.088 407.68c0 318.08 257.92 576 576 576zM960 896c176.64 0 320 143.36 320 320
s-143.36 320 -320 320c-176.768 0 -320 -143.36 -320 -320s143.232 -320 320 -320z" />
    <glyph glyph-name="uniF406" unicode="&#xf406;" 
d="M2048 1920l-832 -832l832 -832l-128 -128l-832 832l-832 -832l-128 128l832 832l-832 832l128 128l832 -832l832 832z" />
    <glyph glyph-name="uniF8A3" unicode="&#xf8a3;" 
d="M1600 1408h192v-832c0 -105.984 -86.0156 -192 -192 -192h-1152c-105.984 0 -192 86.0156 -192 192v1088h1280v-1088c0 -35.3281 28.6719 -64 64 -64s64 28.6719 64 64v704h-64v128zM768 768v384h-384v-384h384zM1408 768v128h-512v-128h512zM1408 1024v128h-512v-128
h512zM1408 1280v128h-1024v-128h1024z" />
    <glyph glyph-name="uniF449" unicode="&#xf449;" 
d="M512 512v1024h1024v-1024h-1024z" />
    <glyph glyph-name="uniF467" unicode="&#xf467;" 
d="M1280 1280c282.752 0 512 -229.248 512 -512v-299.904l-150.016 149.889c-99.9688 99.9678 -231.04 150.016 -361.984 150.016h-256v-384l-640 640l640 640v-384h256z" />
    <glyph glyph-name="uniF224" unicode="&#xf224;" 
d="M1536 1792c141.312 0 256 -114.688 256 -256v-384c0 -424.064 -343.936 -768 -768 -768s-768 343.936 -768 768v384c0 141.312 114.688 256 256 256h1024zM1498.5 1189.5c50.0479 50.0479 50.0479 131.072 0 180.992c-50.0479 50.0479 -130.944 50.0479 -180.992 0
l-293.504 -293.504l-293.504 293.504c-50.0479 50.0479 -131.072 50.0479 -180.992 0c-50.0479 -49.9199 -50.0479 -130.944 0 -180.992l361.984 -361.984l4.22363 4.22461c22.4004 -37.376 61.5684 -63.7441 108.288 -63.7441s85.8877 26.3682 108.288 63.7441
l4.22363 -4.22461z" />
    <glyph glyph-name="uniF203" unicode="&#xf203;" 
d="M1664 1920c141.312 0 256 -114.688 256 -256v-1280c0 -141.312 -114.688 -256 -256 -256h-281.856v711.168h269.44l12.416 259.456h-281.984v192.384v0.255859v12.0322c0 71.2959 15.2324 114.432 108.544 114.432c86.6562 0 166.017 -0.639648 166.017 -0.639648
l5.8877 242.304s-77.6963 9.98438 -182.528 9.98438c-259.584 0 -372.096 -159.872 -372.096 -333.952v-236.8h-254.336v-259.328h254.336v-711.296h-723.84c-141.312 0 -256 114.688 -256 256v1280c0 141.312 114.688 256 256 256h1280z" />
    <glyph glyph-name="uniF502" unicode="&#xf502;" 
d="M128 2048h1920l-960 -960z" />
    <glyph glyph-name="uniF806" unicode="&#xf806;" 
d="M512 512v512h256v-512h-256zM896 512v896h256v-896h-256zM1280 1152h256v-640h-256v640z" />
    <glyph glyph-name="uniF440" unicode="&#xf440;" 
d="M1152 640v-256h256l-384 -384l-384 384h256v256h256zM1664 1024c141.312 0 256 -114.688 256 -256s-114.688 -256 -256 -256h-384v256h-512v-256h-384c-141.312 0 -256 114.688 -256 256s114.688 256 256 256h6.40039c-4.09668 20.7363 -6.40039 42.1123 -6.40039 64
c0 176.768 143.232 320 320 320c89.3438 0 169.984 -36.7363 227.968 -95.8721c60.7998 131.84 193.408 223.872 348.032 223.872c211.968 0 384 -171.904 384 -384c0 -45.1836 -9.21582 -87.8076 -23.5518 -128h23.5518z" />
    <glyph glyph-name="uniF305" unicode="&#xf305;" 
d="M1408 1664h256v-1280h-1408v1280h256v128h128v-128h640v128h128v-128zM1536 640v640c0 70.7842 -57.2158 128 -128 128h-896c-70.6562 0 -128 -57.2158 -128 -128v-640c0 -70.7842 57.3438 -128 128 -128h896c70.7842 0 128 57.2158 128 128zM960 1280
c35.3281 0 64 -28.6719 64 -64v-512c0 -35.3281 -28.6719 -64 -64 -64s-64 28.6719 -64 64v448h-64c-35.3281 0 -64 28.6719 -64 64s28.6719 64 64 64h128z" />
    <glyph glyph-name="uniF443" unicode="&#xf443;" 
d="M1152 1664l384 -384v-121.472v-6.52832v-768h-1024v1280h512h128zM1408 512v640h-256h-128v128v256h-384v-1024h768z" />
    <glyph glyph-name="uniF8A4" unicode="&#xf8a4;" 
d="M1152 1408h640v-384h-640v384zM384 256v704h512v-704h-512zM256 1024v384h640v-384h-640zM1152 256v704h512v-704h-512zM1396.99 1472h-745.984l-77.3115 77.3115l180.992 180.992l141.312 -141.312v203.008h256v-203.008l141.312 141.312l180.992 -180.992z" />
    <glyph glyph-name="uniF411" unicode="&#xf411;" 
d="M1280 1728l448 -448l-896 -896h-448v448zM1280 1536l-594.688 -594.688l96 -96l594.688 594.688zM768 512l128 128l-96 96v0l-64 64v0l-96 96l-128 -128zM845.312 781.312l96 -96l594.688 594.688l-96 96z" />
    <glyph glyph-name="uniF8B5" unicode="&#xf8b5;" 
d="M964.096 384.256l-110.336 307.072h-422.784l-108.159 -307.072h-190.593l413.696 1110.27h196.608l413.695 -1110.27h-192.128zM806.016 847.104l-103.552 301.057c-7.55176 20.0957 -18.0479 51.8398 -31.3604 95.2314
c-13.3115 43.3926 -22.5273 75.1367 -27.6475 95.2324c-13.5684 -61.9521 -33.5361 -129.792 -59.6484 -203.392l-99.8398 -288.129h322.048zM1793.92 385.024l-35.2002 115.456h-6.01562c-39.9365 -50.5605 -80.2559 -84.8643 -120.832 -103.169
c-40.4482 -18.3037 -92.5439 -27.3916 -156.16 -27.3916c-81.5361 0 -145.152 22.0156 -190.976 66.0479c-45.8242 44.0322 -68.7363 106.368 -68.7363 186.88c0 85.5039 31.7441 150.145 95.3604 193.664c63.4873 43.5205 160.256 67.2002 290.432 71.2959l143.36 4.48047
v44.2881c0 52.9922 -12.416 92.6719 -37.1201 118.912c-24.7041 26.2393 -63.2324 39.4238 -115.2 39.4238c-42.4961 0 -83.2002 -6.27246 -122.368 -18.6885c-39.04 -12.5439 -76.5439 -27.2637 -112.512 -44.2881l-57.0879 126.08
c45.1836 23.5527 94.3359 41.4727 147.84 53.6328c53.6318 12.2871 104.063 18.4316 151.68 18.4316c105.601 0 185.216 -23.04 239.104 -69.1201c53.6318 -46.0801 80.5117 -118.271 80.5117 -216.96v-559.104h-126.08v0.12793zM1531.26 504.96
c64 0 115.328 17.9199 154.24 53.7598c38.7842 35.7119 58.1123 85.8887 58.1123 150.4v72.1914l-106.624 -4.47949c-82.9443 -2.94434 -143.36 -16.8965 -181.248 -41.5996c-37.7598 -24.832 -56.5762 -62.7207 -56.5762 -113.792
c0 -36.9922 11.0078 -65.6641 33.0244 -86.0166c21.8877 -20.3516 55.04 -30.4639 99.0713 -30.4639z" />
    <glyph glyph-name="uniF402" unicode="&#xf402;" 
d="M896 1536v-256h256v-128h-256v-256h-128v256h-256v128h256v256h128zM1297.15 878.848l494.848 -494.848l-128 -128l-494.848 494.848c-94.8486 -68.9912 -210.816 -110.848 -337.152 -110.848c-318.08 0 -576 257.92 -576 576s257.92 576 576 576s576 -257.92 576 -576
c0 -126.336 -41.8564 -242.304 -110.848 -337.152zM832 768c247.552 0 448 200.576 448 448s-200.448 448 -448 448c-247.424 0 -448 -200.576 -448 -448s200.576 -448 448 -448z" />
    <glyph glyph-name="uniF420" unicode="&#xf420;" 
d="M483.2 1564.8l-227.2 227.2h640v-640l-232.32 232.32c-93.0557 -92.1602 -151.68 -218.88 -151.68 -360.32c0 -238.208 163.584 -436.736 384 -493.824v-262.656c-363.008 61.0566 -640 376.064 -640 756.48c0 212.096 88.0645 402.048 227.2 540.8zM1792 1024
c0 -212.096 -88.0645 -401.92 -227.2 -540.8l227.2 -227.2h-640v640l18.5596 -18.5596l213.761 -213.761c93.0557 92.1602 151.68 218.88 151.68 360.32c0 238.208 -163.584 436.736 -384 493.824v262.656c363.008 -61.0566 640 -376.064 640 -756.48z" />
    <glyph glyph-name="uniF425" unicode="&#xf425;" 
d="M704 1024c35.3281 0 64 -28.6719 64 -64s-28.6719 -64 -64 -64s-64 28.6719 -64 64s28.6719 64 64 64zM704 1280c35.3281 0 64 -28.6719 64 -64s-28.6719 -64 -64 -64s-64 28.6719 -64 64s28.6719 64 64 64zM704 768c35.3281 0 64 -28.6719 64 -64s-28.6719 -64 -64 -64
s-64 28.6719 -64 64s28.6719 64 64 64zM896 896v128h384v-128h-384zM896 640v128h384v-128h-384zM1280 1664h256v-1280h-1152v1280h256c0 70.7842 57.3438 128 128 128h384c70.7842 0 128 -57.2158 128 -128zM832 1664c-35.3281 0 -64 -28.6719 -64 -64s28.6719 -64 64 -64
h256c35.3281 0 64 28.6719 64 64s-28.6719 64 -64 64h-256zM1408 512v1024h-128v-128h-640v128h-128v-1024h896zM896 1152v128h384v-128h-384z" />
    <glyph glyph-name="uniF8D0" unicode="&#xf8d0;" 
d="M1024 1920c494.72 0 896 -401.152 896 -896s-401.28 -896 -896 -896c-494.848 0 -896 401.152 -896 896c0 247.424 100.352 471.424 262.4 633.6c70.0156 70.0166 183.424 70.0166 253.312 0c70.0156 -70.0156 70.0156 -183.424 0 -253.439v0
c-97.1523 -97.2803 -157.312 -231.68 -157.312 -380.16c0 -296.832 240.64 -537.6 537.6 -537.6s537.472 240.768 537.472 537.6c0 234.112 -149.504 433.024 -358.271 506.88v-417.28c0 -98.9434 -80.2559 -179.199 -179.2 -179.199s-179.2 80.2559 -179.2 179.199v627.2
c0 98.9443 80.2559 179.2 179.2 179.2z" />
    <glyph glyph-name="uniF508" unicode="&#xf508;" 
d="M1450.5 1395.2c45.6963 -69.376 124.288 -115.2 213.504 -115.2c5.50391 0 10.4961 1.28027 15.8721 1.66406l-399.872 -799.872l-256 512l-256 -512l-128 256l-256 -512l-299.776 599.424l228.992 114.561l70.7842 -141.568l256 512l128 -256l256 512l256 -512z
M1664 1728c106.112 0 192 -86.0156 192 -192s-85.8877 -192 -192 -192s-192 86.0156 -192 192s85.8877 192 192 192z" />
    <glyph glyph-name="uniF507" unicode="&#xf507;" 
d="M1792 604.544c76.2881 -44.416 128 -126.08 128 -220.544c0 -141.312 -114.688 -256 -256 -256s-256 114.688 -256 256c0 94.5918 51.7119 176.128 128 220.544v163.456c0 70.7842 -57.2158 128 -128 128h-256v-291.456c76.2881 -44.416 128 -126.08 128 -220.544
c0 -141.312 -114.688 -256 -256 -256s-256 114.688 -256 256c0 94.4639 51.8398 176.128 128 220.544v291.456h-256c-70.6562 0 -128 -57.2158 -128 -128v-163.456c76.1602 -44.416 128 -126.08 128 -220.544c0 -141.312 -114.688 -256 -256 -256s-256 114.688 -256 256
c0 94.4639 51.8398 176.128 128 220.544v163.456c0 212.096 171.904 384 384 384h256v291.456c-76.1602 44.416 -128 126.08 -128 220.544c0 141.312 114.688 256 256 256s256 -114.688 256 -256c0 -94.4639 -51.7119 -176.128 -128 -220.544v-291.456h256
c211.968 0 384 -171.904 384 -384v-163.456zM1024 1792c-70.6562 0 -128 -57.3438 -128 -128s57.3438 -128 128 -128s128 57.3438 128 128s-57.3438 128 -128 128zM384 256c70.6562 0 128 57.2158 128 128s-57.3438 128 -128 128s-128 -57.2158 -128 -128
s57.3438 -128 128 -128zM1024 256c70.6562 0 128 57.2158 128 128s-57.3438 128 -128 128s-128 -57.2158 -128 -128s57.3438 -128 128 -128zM1664 256c70.7842 0 128 57.2158 128 128s-57.2158 128 -128 128s-128 -57.2158 -128 -128s57.2158 -128 128 -128z" />
    <glyph glyph-name="uniF306" unicode="&#xf306;" 
d="M1151.87 1219.46c0.12793 -0.511719 0.12793 -0.896484 0.12793 -1.4082v-1.79199v-0.255859c0 -5.12012 -0.639648 -10.3682 -1.91992 -15.4883l-128 -512c-8.57617 -34.1758 -43.2637 -55.04 -77.5684 -46.5918c-34.3037 8.57617 -55.168 43.2637 -46.5918 77.5684
l108.16 432.512h-174.08c-35.3281 0 -64 28.6719 -64 64s28.6719 64 64 64h256h1.53613h1.28027c1.02344 -0.12793 1.91992 -0.12793 2.81543 -0.255859h0.255859c30.3359 -2.68848 54.5283 -26.624 57.8564 -56.96v0c0 -0.768555 0.12793 -1.4082 0.12793 -2.04785
v-1.28027zM1408 1664h256v-1280h-1408v1280h256v128h128v-128h640v128h128v-128zM1536 640v640c0 70.7842 -57.2158 128 -128 128h-896c-70.6562 0 -128 -57.2158 -128 -128v-640c0 -70.7842 57.3438 -128 128 -128h896c70.7842 0 128 57.2158 128 128z" />
    <glyph glyph-name="uniF808" unicode="&#xf808;" 
d="M512 1024v384h448v-384h-448zM1088 1408h448v-384h-448v384zM512 512v384h448v-384h-448zM1088 512v384h448v-384h-448z" />
    <glyph glyph-name="uniF8B4" unicode="&#xf8b4;" 
d="M1083.01 1005.31c73.0879 -165.119 470.017 50.1768 378.88 281.856c-58.8799 149.888 -447.744 -125.824 -378.88 -281.856zM962.176 1654.27c100.864 -33.6641 -195.072 -202.112 -10.1113 -314.753c104.063 -63.3594 330.88 223.36 444.928 288
c97.0234 54.2725 267.008 65.2803 353.023 -123.775c108.929 -240 13.9521 -862.848 -379.008 -1112.96c-396.928 -252.416 -896.768 -123.776 -1069.7 267.392c-200.96 455.681 311.937 1116.42 660.864 996.097z" />
    <glyph glyph-name="uniF215" unicode="&#xf215;" 
d="M1664 1920c141.312 0 256 -114.688 256 -256v-1280c0 -141.312 -114.688 -256 -256 -256h-1280c-141.312 0 -256 114.688 -256 256v1280c0 141.312 114.688 256 256 256h1280zM1024 1408c-212.096 0 -384 -171.904 -384 -384c0 -211.968 171.904 -384 384 -384
c211.968 0 384 172.032 384 384c0 212.096 -172.032 384 -384 384zM1792 384v768h-274.176c10.624 -41.0879 18.1758 -83.4561 18.1758 -128c0 -282.752 -229.248 -512 -512 -512s-512 229.248 -512 512c0 44.5439 7.42383 86.9121 18.1758 128h-274.176v-768
c0 -70.7842 57.3438 -128 128 -128h1280c70.7842 0 128 57.2158 128 128zM1792 1536v128c0 70.6562 -57.2158 128 -128 128h-128c-70.7842 0 -128 -57.3438 -128 -128v-128c0 -70.6562 57.2158 -128 128 -128h128c70.7842 0 128 57.3438 128 128z" />
    <glyph glyph-name="uniF450" unicode="&#xf450;" 
d="M768 1024l1024 640v-1280zM256 384v1280h384v-1280h-384z" />
    <glyph glyph-name="uniF202" unicode="&#xf202;" 
d="M1920 1583.74c-49.2803 -73.7285 -111.744 -138.368 -183.552 -190.208c0.767578 -15.7441 1.2793 -31.6162 1.2793 -47.4883c0 -485.76 -369.92 -1046.02 -1046.27 -1046.02c-207.616 0 -400.768 60.7998 -563.456 165.248
c28.7998 -3.45605 58.1123 -5.24805 87.8076 -5.24805c172.032 0 330.752 58.752 456.448 157.439c-160.768 2.81641 -296.576 108.929 -343.424 255.104c22.5283 -3.96777 45.4404 -6.52832 69.248 -6.52832c33.5361 0 65.9199 4.48047 96.7676 12.7998
c-168.319 33.792 -294.912 182.272 -294.912 360.448v4.73633c49.6641 -27.5205 106.368 -44.0322 166.528 -45.9521c-98.6875 65.9199 -163.456 178.432 -163.456 305.92c0 67.3281 18.1758 130.688 49.792 184.96c181.376 -222.464 452.353 -368.768 757.889 -384.128
c-6.27246 26.8799 -9.60059 54.9121 -9.60059 83.7119c0 203.008 164.608 367.616 367.616 367.616c105.855 0 201.472 -44.6719 268.544 -116.096c83.584 16.5117 162.304 47.1035 233.216 89.2158c-27.3916 -85.8887 -85.7598 -157.952 -161.536 -203.393
c74.3682 8.83203 145.152 28.5439 211.072 57.8564z" />
    <glyph glyph-name="uniF222" unicode="&#xf222;" 
d="M1223.94 775.936c20.0967 20.0967 52.0967 19.9688 72.0645 0c19.9678 -19.9678 19.9678 -52.9912 0 -72.96c-56.96 -56.96 -145.92 -86.0156 -270.976 -86.0156c-126.977 0 -216.064 29.0557 -273.024 86.0156c-19.9678 19.9688 -19.9678 52.9922 0 72.96
c19.9678 19.9688 51.9678 19.9688 71.9355 0c38.0166 -38.0156 103.04 -56.0635 199.04 -56.0635c97.9209 0 162.944 18.0479 200.96 56.0635zM894.976 982.016c0 -61.0557 -49.9199 -112 -112 -112c-60.9277 0 -110.976 50.9443 -110.976 112
c0 61.9521 49.9199 112 110.976 112c61.9521 0 112 -50.0479 112 -112zM1265.02 1094.02c61.9512 0 112 -50.0479 112 -112c0 -61.0557 -50.0488 -112 -112 -112c-61.9521 0 -112 50.9443 -112 112c0 61.9521 50.0479 112 112 112zM1698.05 1089.02
c24.96 17.9199 43.0078 45.9512 43.1357 78.9756c0 54.0156 -44.0312 98.0479 -98.0479 98.0479c-32 0 -57.9834 -16 -76.0322 -39.04c53.8887 -39.9355 98.9443 -87.04 130.944 -137.983zM1021.06 500.992c347.904 0 631.937 177.023 632.064 393.983
c0 219.009 -284.032 396.032 -632.064 396.032c-349.056 0 -632.96 -177.023 -632.96 -395.008s283.904 -395.008 632.96 -395.008zM306.944 1168c0 -30.9756 16 -57.9844 39.9355 -74.8799c32 50.9443 76.9277 97.0234 131.968 136.96
c-17.9199 22.0156 -43.0078 35.9678 -72.96 35.9678c-54.9121 0 -98.9434 -44.0322 -98.9434 -98.0479zM1600 1805.06c-41.9844 0 -77.0557 -35.0713 -77.0557 -77.0557s35.0713 -77.0557 77.0557 -77.0557s77.0557 34.9434 77.0557 77.0557
s-35.0713 77.0557 -77.0557 77.0557zM1842.94 1168c0 -75.0078 -41.9844 -137.984 -101.889 -173.056c8.95996 -32 13.9521 -64.8965 13.9521 -98.9443c0 -274.944 -329.088 -498.048 -734.08 -498.048s-734.976 222.976 -734.976 497.023
c0 35.9688 6.01562 70.0166 16.1279 104.064c-57.9844 34.9443 -97.0244 97.0244 -97.0244 168.96c0 110.976 89.9844 200.96 200.96 200.96c66.0488 0 124.032 -32.8955 160 -82.9443c114.944 60.9287 257.024 99.9688 411.904 105.984l92.0322 456.96
c3.07227 14.0801 11.0078 25.9844 23.04 33.0244c12.0322 8.06348 25.9834 9.9834 39.04 7.04004l312.96 -72.0645c30.9756 52.9922 88.96 89.9844 155.008 89.9844c98.9443 0 179.072 -80 179.072 -178.944s-80 -178.944 -178.944 -178.944
c-95.1035 0 -172.032 73.9844 -178.048 167.937l-262.016 60.0322l-77.0566 -386.049c148.992 -7.93555 285.952 -46.9756 397.057 -108.031c35.9678 51.9678 94.9756 86.0156 162.943 86.0156c109.952 0 199.937 -89.9844 199.937 -200.96z" />
    <glyph glyph-name="uniF214" unicode="&#xf214;" 
d="M1091.2 1920v-452.992h425.216v-281.216h-425.216v-459.52c0 -103.937 5.50391 -170.624 16.6396 -200.192c10.8799 -29.3125 31.4883 -52.8643 61.3125 -70.5283c39.6797 -23.8076 84.8633 -35.7119 135.936 -35.7119c90.624 0 180.864 29.4404 270.72 88.4482v-282.624
c-76.6719 -35.9678 -146.048 -61.3125 -208 -75.9043c-61.9512 -14.4639 -129.023 -21.7598 -201.216 -21.7598c-81.9199 0 -154.368 10.3682 -217.344 30.9756c-62.9756 20.6084 -116.608 50.3047 -161.024 88.4482c-44.5439 38.2725 -75.2637 78.9766 -92.416 122.112
c-17.1514 43.1357 -25.7275 105.6 -25.7275 187.52v628.736h-198.016v253.568c70.3994 22.9121 130.688 55.6797 180.863 98.4316c50.3047 42.624 90.4961 93.8242 120.832 153.856c30.3359 59.7754 51.2002 135.808 62.7207 228.352h254.72z" />
    <glyph glyph-name="uniF8A9" unicode="&#xf8a9;" 
d="M256 1536h1536v-1152h-1536v1152zM1152 512v896h-768v-896h768zM1664 1024v384h-384v-384h384z" />
    <glyph glyph-name="uniF104" unicode="&#xf104;" 
d="M512 1664l1152 -640l-1152 -640v1280z" />
    <glyph glyph-name="uniF460" unicode="&#xf460;" 
d="M1664 1280h128l-256 -768h-768l256 768h128l86.2725 256h339.455zM1300.86 1280h214.271l-43.1357 128h-128zM809.728 1536l86.2725 -256l-256 -768h-128l-256 768h128l86.2725 256h339.455zM532.864 1280h214.271l-43.1357 128h-128z" />
    <glyph glyph-name="uniF50B" unicode="&#xf50b;" 
d="M1408 1152l-384 -384l-384 384h256v512h256v-512h256zM384 640h1280v-256h-1280v256z" />
    <glyph glyph-name="uniF405" unicode="&#xf405;" 
d="M1536 1408l-320 -320l320 -320l-128 -128l-320 320l-320 -320l-128 128l320 320l-320 320l128 128l320 -320l320 320z" />
    <glyph glyph-name="uniF458" unicode="&#xf458;" 
d="M1920 1024l-1024 -640v480l-768 -480v1280l768 -480v480z" />
    <glyph glyph-name="uniF218" unicode="&#xf218;" 
d="M1792 1152h256v-128h-256v-256h-128v256h-256v128h256v256h128v-256zM1301.5 1920l-150.528 -84.7363h-145.792c54.0166 -44.6719 167.04 -138.624 167.04 -317.439c0 -173.952 -98.8154 -256.256 -197.504 -333.952
c-30.5918 -30.4639 -65.9199 -63.4883 -65.9199 -115.2s35.3281 -79.8721 61.1846 -101.12l84.7354 -65.792c103.424 -86.9121 197.376 -166.912 197.376 -329.216c0 -221.184 -213.888 -444.544 -618.368 -444.544c-341.119 0 -505.728 162.304 -505.728 336.384
c0 84.6084 42.3682 204.544 181.12 286.849c145.792 89.4717 343.424 101.119 449.152 108.159c-32.8965 42.3682 -70.5283 87.04 -70.5283 159.744c0 40.1924 11.7754 63.7441 23.5518 91.7764c-25.9844 -2.04785 -51.7119 -4.6084 -75.2637 -4.6084
c-249.216 0 -390.4 185.856 -390.4 369.28c0 108.032 49.4082 227.968 150.528 315.008c134.144 110.592 294.016 129.408 420.864 129.408h484.479zM1094.53 480.768c0 119.809 -77.5684 183.425 -256.385 310.528c-18.8154 2.30371 -30.5918 2.30371 -54.0156 2.30371
c-21.1201 0 -148.224 -4.60742 -246.912 -37.6318c-51.8398 -18.8154 -202.368 -75.1357 -202.368 -242.304c0 -166.784 162.305 -286.848 413.952 -286.848c225.792 0 345.729 108.159 345.729 253.951zM906.496 1238.02c54.0156 54.1445 58.752 129.408 58.624 171.648
c0 169.344 -101.12 432.768 -296.192 432.768c-61.3115 0 -127.104 -30.5918 -164.735 -77.5674c-39.9365 -49.4082 -51.7119 -112.896 -51.7119 -174.08c0 -157.568 91.6475 -418.561 294.016 -418.561c58.752 0 122.368 28.2881 160 65.792z" />
    <glyph glyph-name="uniF513" unicode="&#xf513;" 
d="M1920 1280l-555.136 -387.968l212.863 -636.032l-553.728 394.496l-553.728 -394.496l212.991 636.032l-555.264 387.968h685.312l210.688 640l210.688 -640h685.312zM1024 807.68l307.584 -219.136l-118.4 353.536l300.288 209.92h-371.456l-118.016 358.528v-702.849z
" />
    <glyph glyph-name="uniF301" unicode="&#xf301;" 
d="M704 1152h960l-256 -640h-1024v1024h384l64 -128h448v-128h-640l-128 -256h128z" />
    <glyph glyph-name="uniF474" unicode="&#xf474;" 
d="M128 1408v384h384zM640 768v512h768v-512h-768zM1536 1792h384v-384zM128 640l384 -384h-384v384zM1536 256l384 384v-384h-384zM1536 1408l256 384l128 -128zM1536 640l384 -256l-128 -128zM128 384l384 256l-256 -384zM128 1664l128 128l256 -384z" />
    <glyph glyph-name="uniF438" unicode="&#xf438;" 
d="M768 896v128h-512v256h512v128l384 -256zM1280 1792c141.312 0 256 -114.688 256 -256v-1024c0 -141.312 -114.688 -256 -256 -256h-512c-141.312 0 -256 114.688 -256 256v384h128v-128h768v768h-768v-128h-128v128c0 141.312 114.688 256 256 256h512zM1024 384
c70.7842 0 128 57.2158 128 128s-57.2158 128 -128 128c-70.6562 0 -128 -57.2158 -128 -128s57.3438 -128 128 -128z" />
    <glyph glyph-name="uniF451" unicode="&#xf451;" 
d="M256 384v1280l1024 -640zM1408 1664h384v-1280h-384v1280z" />
    <glyph glyph-name="uniF404" unicode="&#xf404;" 
d="M1024 640c-19.8398 0 -39.04 2.43164 -57.8564 5.63184l436.225 436.225c3.2002 -18.8164 5.63184 -38.0166 5.63184 -57.8564c0 -211.968 -172.032 -384 -384 -384zM1696.26 1375.74l351.744 -351.744l-506.624 -506.624
c-131.456 -134.272 -314.752 -217.728 -517.376 -217.728c-117.248 0 -226.944 29.3115 -324.864 79.1035l147.072 146.944c56.7041 -20.6084 115.968 -34.0479 177.92 -34.0479c144 0 279.168 56.832 380.288 160.128l372.096 372.224l-216.063 215.936zM1606.02 1722.11
l128.641 -129.024l-1279.87 -1279.87l-128.896 128.769l128 128.128l-453.888 453.888v0l506.496 506.496c131.456 134.4 314.624 217.984 517.504 217.984c170.368 0 324.48 -61.8242 448 -160.385zM896 1024c70.6562 0 128 57.3438 128 128s-57.3438 128 -128 128
c-70.7842 0 -128 -57.3438 -128 -128s57.2158 -128 128 -128zM1229.18 1345.28l105.729 105.728c-90.752 66.8164 -197.12 105.473 -310.912 105.473c-144.128 0 -279.168 -56.9609 -380.288 -160.385l-372.096 -372.096l318.208 -318.336l113.023 113.024
c-38.6553 59.5195 -62.8477 129.023 -62.8477 205.312c0 212.096 172.032 384 384 384c76.2881 0 145.792 -24.1924 205.184 -62.7197z" />
    <glyph glyph-name="uniF209" unicode="&#xf209;" 
d="M1073.15 2048c481.664 0 798.976 -348.672 798.976 -722.944c0 -495.104 -275.328 -865.151 -680.96 -865.151c-136.32 0 -264.448 73.7275 -308.352 157.439c0 0 -73.2168 -290.943 -88.832 -347.136c-26.8809 -97.2803 -79.2324 -194.56 -127.104 -270.208
l-148.992 54.0156c-3.58398 88.3203 -0.639648 194.049 22.0166 289.92c24.1914 102.4 162.304 687.744 162.304 687.744s-40.3203 80.6406 -40.3203 199.809c0 187.008 108.544 326.784 243.456 326.784c114.816 0 170.24 -86.1445 170.24 -189.44
c0 -115.328 -73.7275 -288 -111.488 -448c-31.6152 -133.632 67.2002 -242.816 199.168 -242.816c239.232 0 400.128 307.072 400.128 670.977c0 276.607 -186.367 483.712 -525.184 483.712c-382.72 0 -621.312 -285.568 -621.312 -604.544
c0 -110.08 32.5117 -187.521 83.1992 -247.424c23.5527 -27.7764 26.624 -38.9121 18.3047 -70.6562c-6.0166 -23.04 -19.9688 -78.9766 -25.7285 -101.248c-8.44824 -32 -34.3037 -43.2637 -63.2314 -31.3604c-176.257 71.6807 -258.433 264.96 -258.433 482.048
c0 358.656 302.336 788.48 902.145 788.48z" />
    <glyph glyph-name="uniF800" unicode="&#xf800;" 
d="M1536 1536c70.7842 0 128 -57.2158 128 -128v-768c0 -70.7842 -57.2158 -128 -128 -128h-281.6l-230.4 -384l-230.4 384h-281.6c-70.7842 0 -128 57.2158 -128 128v768c0 70.7842 57.2158 128 128 128h1024z" />
    <glyph glyph-name="uniF8B2" unicode="&#xf8b2;" 
d="M576 1265.28c-59.3916 81.2793 -107.392 174.464 -136.192 270.72h272.385c-28.8008 -96.2559 -76.8008 -189.44 -136.192 -270.72zM768 927.616v-159.616h-640c-70.6562 0 -128 57.2158 -128 128v896c0 70.6562 57.3438 128 128 128h896
c70.6562 0 128 -57.3438 128 -128v-384h-128c-141.184 0 -256 -114.816 -256 -256v-76.7998c-36.3516 24.4482 -72.1924 54.2715 -106.368 88.5762c82.3037 107.136 148.225 237.184 182.4 372.224h179.968v128h-384v128h-128v-128h-384v-128h179.968
c34.1758 -135.04 100.097 -265.088 182.4 -372.224c-65.0244 -65.5361 -136.32 -115.712 -206.08 -139.776l62.3359 -112.256c75.1357 25.0879 155.008 80.5117 229.376 154.88c62.0801 -62.208 128 -109.952 192 -139.008zM1346.82 640l125.184 316.672l125.184 -316.672
h-250.367zM1920 1280c70.7842 0 128 -57.3438 128 -128v-896c0 -70.7842 -57.2158 -128 -128 -128h-896c-70.6562 0 -128 57.2158 -128 128v896c0 70.6562 57.3438 128 128 128h896zM1748.74 256h162.815l-358.144 896h-162.816l-358.271 -896h162.943l100.097 253.568
h353.279z" />
    <glyph glyph-name="uniF217" unicode="&#xf217;" 
d="M1024 1920c494.08 0 896 -402.048 896 -896c0 -494.08 -401.92 -896 -896 -896c-493.952 0 -896 401.92 -896 896c0 493.952 402.048 896 896 896zM1112.83 1769.47c-211.2 10.4961 -420.864 -73.4717 -564.608 -220.16
c-146.432 -144.256 -216.063 -354.176 -189.695 -551.68c23.4238 -197.248 142.592 -378.496 307.584 -476.032c160.768 -96 365.312 -104.191 530.943 -29.0557c-47.1035 -13.0557 -96.6396 -20.3516 -147.712 -20.3516c-303.487 0 -550.399 246.911 -550.399 550.399
c0 143.872 55.6797 274.944 146.304 373.12c1.02441 1.02441 1.91992 1.91992 2.81641 2.94434c4.60742 4.73535 9.08789 9.47168 13.6953 14.208c0.512695 0.383789 0.896484 1.02344 1.4082 1.2793c128 148.353 317.056 242.177 528.256 242.177
c221.057 0 418.176 -102.912 546.048 -263.424c-20.8633 33.5352 -44.0312 65.6631 -69.376 95.6152c-137.983 168.832 -343.68 273.408 -555.264 280.96zM1415.04 1006.21c4.35156 -90.3682 -25.3438 -182.912 -80.7676 -257.152
c-55.5527 -73.8555 -135.169 -129.664 -225.28 -156.928c-74.8799 -22.7842 -156.544 -25.5996 -234.112 -7.04004c54.0166 -21.6318 112.896 -33.6641 174.464 -33.6641c259.968 0 471.296 211.456 471.296 471.296c0 0.768555 -0.12793 1.66406 -0.12793 2.68848
c-13.6953 142.336 -88.1914 276.352 -200.319 359.168c-137.345 104.576 -332.288 116.864 -479.232 38.0156c-73.2158 -38.5273 -136.832 -97.1514 -176.896 -166.912c-40.5762 -69.8877 -58.4961 -151.68 -52.2246 -230.912
c10.624 -158.976 124.8 -305.023 271.616 -345.216c146.432 -44.0322 313.344 19.584 391.936 142.849c82.5605 120.447 62.7207 293.119 -36.3516 391.68c-94.0801 104.192 -260.992 115.968 -367.872 36.8643c-54.0156 -38.6562 -92.5439 -94.3359 -105.344 -157.057
c-13.3125 -62.0801 -1.66406 -128.64 30.4639 -181.76c32.1279 -53.7598 83.7119 -93.5684 141.952 -108.032c58.2402 -15.1035 121.6 -4.86328 171.52 25.6006c50.5605 30.4639 87.5518 80.1279 97.9199 135.68c11.3926 55.2959 -1.66406 114.432 -34.3037 158.848
c-32.1279 45.5684 -82.8164 73.3447 -135.936 76.9287c-52.9922 4.0957 -105.856 -17.2803 -141.568 -54.2725c-36.6084 -35.9678 -52.0957 -89.0879 -44.6719 -137.855c7.55176 -48.6406 38.2715 -93.6963 80 -115.584c26.4961 -14.7207 57.4717 -19.8408 86.9121 -16.3848
c-62.0801 1.53613 -114.177 43.2646 -131.456 100.097c-0.512695 0.767578 -1.02441 1.66406 -1.4082 2.6875c-17.9199 41.4717 -13.0557 94.3359 16.1279 133.376c28.416 38.7842 77.5684 63.3604 128.768 60.7998c51.0723 -1.66406 101.376 -33.0234 128 -78.9756
c27.3926 -45.8242 32 -106.752 7.80859 -158.336c-24.0645 -51.7119 -73.7285 -90.2402 -131.584 -101.632c-57.4717 -12.416 -122.752 4.73535 -167.68 47.3594c-44.8008 40.96 -72.0645 104.192 -67.4561 168.32c3.83984 133.12 150.911 237.44 287.104 200.96
c138.368 -31.6162 226.944 -196.736 173.824 -338.304c-48.6406 -142.72 -224.769 -225.536 -373.888 -166.912c-74.1123 27.5195 -134.784 85.8877 -169.729 157.568c-34.9443 72.1914 -42.2402 158.592 -17.9199 237.695c47.8721 161.664 226.176 269.185 398.848 238.464
c175.36 -25.5996 313.217 -192.64 317.568 -374.016zM1024 207.488c319.232 0 595.968 184.319 730.112 451.712c37.248 84.7354 58.8799 175.744 58.8799 265.728c0 318.977 -247.04 554.368 -553.216 607.616c154.496 -64 279.296 -200.32 331.52 -362.496
c70.1445 -203.136 20.8643 -447.872 -133.12 -608.896c-148.224 -162.944 -384.384 -245.633 -608.128 -206.208c-226.048 35.584 -422.912 198.271 -517.504 407.936c-97.792 209.408 -90.3682 468.224 26.8799 674.432c116.736 206.337 329.344 354.433 566.272 395.009
c11.7754 2.17578 23.6797 3.96777 35.584 5.37598c-420.992 -32.1279 -753.664 -384.641 -753.664 -813.696c0 -450.304 366.208 -816.512 816.384 -816.512z" />
    <glyph glyph-name="uniF8A2" unicode="&#xf8a2;" 
d="M1600 1408h192v-832c0 -105.984 -86.0156 -192 -192 -192h-1152c-105.984 0 -192 86.0156 -192 192v1088h1280v-1088c0 -35.3281 28.6719 -64 64 -64s64 28.6719 64 64v704h-64v128zM448 512h971.776c-7.16797 20.0957 -11.7764 41.4717 -11.7764 64v960h-1024v-960
c0 -35.3281 28.6719 -64 64 -64zM512 768v384h384v-384h-384zM512 1280v128h768v-128h-768zM1024 1024v128h256v-128h-256zM1024 768v128h256v-128h-256z" />
    <glyph glyph-name="uniF469" unicode="&#xf469;" 
d="M256 1280h1536v-768h-256v384h-1024v-384h-256v768zM1408 1664v-256h-768v256h768zM1408 640c0 -98.3037 37.5039 -196.48 112.512 -271.488l112.513 -112.512h-768l-112.513 112.512c-75.0078 75.0078 -112.512 173.185 -112.512 271.488v128h768v-128z" />
    <glyph glyph-name="uniF476" unicode="&#xf476;" 
d="M384 1248c123.776 0 224 -100.224 224 -224c0 -123.648 -100.224 -224 -224 -224s-224 100.352 -224 224c0 123.776 100.224 224 224 224zM1024 1248c123.648 0 224 -100.224 224 -224c0 -123.648 -100.352 -224 -224 -224c-123.776 0 -224 100.352 -224 224
c0 123.776 100.224 224 224 224zM1664 1248c123.648 0 224 -100.224 224 -224c0 -123.648 -100.352 -224 -224 -224s-224 100.352 -224 224c0 123.776 100.352 224 224 224z" />
    <glyph glyph-name="uniF211" unicode="&#xf211;" 
d="M1472 1440c229.888 0 416 -186.24 416 -416s-186.112 -416 -416 -416s-416 186.24 -416 416s186.112 416 416 416zM576 1440c229.76 0 416 -186.24 416 -416s-186.24 -416 -416 -416s-416 186.24 -416 416s186.24 416 416 416z" />
    <glyph glyph-name="uniF456" unicode="&#xf456;" 
d="M1024 1792c424.064 0 768 -343.936 768 -768s-343.936 -768 -768 -768c-424.192 0 -768 343.936 -768 768s343.808 768 768 768zM1024 512c70.7842 0 128 57.2158 128 128s-57.2158 128 -128 128c-70.6562 0 -128 -57.2158 -128 -128s57.3438 -128 128 -128zM1113.22 896
l51.584 640h-281.6l51.2002 -640h178.815z" />
    <glyph glyph-name="uniF471" unicode="&#xf471;" 
d="M512 1664h358.656c163.328 0 281.855 -23.2959 355.712 -69.7598c73.7275 -46.4639 110.592 -120.448 110.592 -221.824c0 -68.8643 -16.1279 -125.312 -48.3838 -169.344c-32.3838 -44.1602 -75.2646 -70.6562 -128.769 -79.6162v-7.93652
c72.96 -16.2559 125.568 -46.7197 157.952 -91.3916c32.2559 -44.6719 48.5127 -104.063 48.5127 -178.048c0 -105.088 -38.0166 -187.008 -113.921 -245.888c-76.0312 -58.8809 -178.943 -88.1924 -309.248 -88.1924h-431.104v1152zM768 1207.81h130.176
c66.3047 0 114.176 10.2402 143.872 30.7207c29.5684 20.4795 44.5439 54.3994 44.5439 101.632c0 44.1602 -16.1279 75.7754 -48.5117 94.9756c-32.3838 19.0723 -83.4561 28.7998 -153.344 28.7998h-116.736v-256.128zM768 1013.89v-300.16h147.456
c67.2002 0 116.864 12.9287 148.864 38.6562c32.1279 25.7285 48.1279 65.1523 48.1279 118.145c0 95.6152 -68.3525 143.487 -204.929 143.487h-139.52v-0.12793z" />
    <glyph glyph-name="uniF433" unicode="&#xf433;" 
d="M0 896l896 -896h-896v896z" />
    <glyph glyph-name="uniF447" unicode="&#xf447;" 
d="M1408 512c70.7842 0 128 -57.2158 128 -128s-57.2158 -128 -128 -128s-128 57.2158 -128 128s57.2158 128 128 128zM640 512c70.6562 0 128 -57.2158 128 -128s-57.3438 -128 -128 -128s-128 57.2158 -128 128s57.3438 128 128 128zM1536 896h-896v-128h896v-128h-1024
v1024h-256v128h384v-256h1152z" />
    <glyph glyph-name="uniF511" unicode="&#xf511;" 
d="M1024 1510.53l-118.016 -358.528h-371.328l300.288 -209.92l-118.272 -353.28l307.328 218.88l307.584 -219.136l-118.4 353.536l300.288 209.92h-371.456zM1024 1920v0l210.688 -640h685.312l-555.136 -387.968l212.863 -636.032l-553.728 394.496l-553.728 -394.496
l212.991 636.032l-555.264 387.968h685.312z" />
    <glyph glyph-name="uniF816" unicode="&#xf816;" 
d="M1022.85 1847.55c545.28 0 897.152 -384.128 897.152 -798.208v-50.6875c0 -407.168 -351.872 -798.208 -897.152 -798.208c-542.848 0 -894.848 391.04 -894.848 798.208v50.6875c0 414.08 352 798.208 894.848 798.208zM1630.08 1007.87v36.8643
c0 296.704 -216.192 561.279 -607.36 561.279c-391.04 0 -604.928 -264.575 -604.928 -561.279v-36.8643c0 -296.576 213.888 -565.888 604.928 -565.888c391.296 0 607.36 269.312 607.36 565.888z" />
    <glyph glyph-name="uniF427" unicode="&#xf427;" 
d="M1717.72 1436.21c99.7246 -99.7246 99.7246 -261.281 0 -361.006l-232.861 -232.989c-98.5723 -98.5723 -257.44 -99.3398 -357.421 -2.81543l-455.353 -455.354h-288.036v287.908l455.097 454.969l-0.767578 0.768555c-99.5967 99.5957 -99.5967 261.408 0 361.005
l232.989 232.989c99.5957 99.7246 261.408 99.7246 361.005 0zM1344.04 1104.01l160.02 160.021l-256.031 256.031l-160.021 -160.02z" />
    <glyph glyph-name="uniF219" unicode="&#xf219;" 
d="M1438.08 1832.7c0 0 563.456 -229.376 370.176 -838.4c-267.264 -554.496 -784.64 -349.056 -784.64 -349.056v-277.504s-19.7119 -153.344 -202.88 -220.288c-183.296 -66.6885 -351.616 59.5195 -351.616 59.5195v279.809
c83.584 -85.5039 195.712 -134.272 240.128 -9.98438v945.92h311.68v-537.472s460.416 -138.496 522.368 289.792c9.85645 475.392 -546.944 472.832 -546.944 472.832s-349.184 22.2715 -522.495 -257.536c-131.2 -222.848 37.1191 -423.424 37.1191 -423.424
l-225.279 -200.448s-339.2 418.433 -7.42383 871.552c430.848 487.681 1159.81 194.688 1159.81 194.688z" />
    <glyph glyph-name="uniF100" unicode="&#xf100;" 
d="M512 1408h1024v-128h-1024v128zM1152 1152v-128h-640v128h640zM1280 1024v128h256v-128h-256zM896 768v128h640v-128h-640zM768 896v-128h-256v128h256zM512 512v128h768v-128h-768z" />
    <glyph glyph-name="uniF804" unicode="&#xf804;" 
d="M384 1408h1152c0 -212.096 -114.688 -384 -256 -384c-32.3838 0 -62.9756 9.98438 -91.3916 26.4961c-43.9043 -71.9365 -100.608 -123.393 -164.608 -144.128v-143.488c146.048 -23.8076 256 -126.976 256 -250.88h-640c0 123.904 109.952 227.072 256 250.88v143.488
c-64 20.7354 -120.704 72.3203 -164.608 144.128c-28.416 -16.5117 -59.0078 -26.4961 -91.3916 -26.4961c-141.312 0 -256 171.904 -256 384zM640 1152c13.9521 0 27.0078 5.75977 39.6797 13.9521c-12.1602 35.9678 -21.8877 73.8555 -28.416 114.048h-121.472
c22.1436 -76.2881 62.9756 -128 110.208 -128zM1280 1152c47.2324 0 88.0645 51.7119 110.208 128h-121.472c-6.65625 -40.1924 -16.2559 -78.0801 -28.416 -114.048c12.5439 -8.19238 25.7275 -13.9521 39.6797 -13.9521z" />
    <glyph glyph-name="uniF400" unicode="&#xf400;" 
d="M1792 384l-128 -128l-494.848 494.848c-94.8486 -68.9912 -210.816 -110.848 -337.152 -110.848c-318.08 0 -576 257.92 -576 576s257.92 576 576 576s576 -257.92 576 -576c0 -126.336 -41.8564 -242.304 -110.848 -337.152zM384 1216c0 -247.424 200.576 -448 448 -448
c247.552 0 448 200.576 448 448s-200.448 448 -448 448c-247.424 0 -448 -200.576 -448 -448z" />
    <glyph glyph-name="uniF439" unicode="&#xf439;" 
d="M896 1664v-384h-256v384c0 70.7842 57.3438 128 128 128s128 -57.2158 128 -128zM1408 1664v-384h-256v384c0 70.7842 57.2158 128 128 128s128 -57.2158 128 -128zM384 1152h1280c0 -309.632 -219.904 -567.68 -512 -627.072v-268.928h-256v268.928
c-292.096 59.2646 -512 317.44 -512 627.072z" />
    <glyph glyph-name="uniF50E" unicode="&#xf50e;" 
d="M384 896v256h1280v-256h-1280z" />
    <glyph glyph-name="uniF510" unicode="&#xf510;" 
d="M1664 1152v-256h-512v-512h-256v512h-512v256h512v512h256v-512h512z" />
    <glyph glyph-name="uniF8D8" unicode="&#xf8d8;" 
d="M640 908.8h-51.2002c-12.7998 38.4004 -12.7998 76.7998 -12.7998 115.2c0 243.2 204.8 448 460.8 435.2c243.2 0 448 -204.8 448 -448c0 -38.4004 0 -76.7998 -12.7998 -115.2h-51.2002c12.7998 38.4004 12.7998 76.7998 12.7998 115.2
c0 64 -25.5996 140.8 -51.1992 192v-38.4004c0 -38.3994 0 -89.5996 -25.6006 -140.8l-38.3994 -115.2h-38.4004c12.7998 51.2002 25.5996 89.6006 25.5996 128c0 51.2002 -25.5996 89.6006 -38.3994 115.2c-25.6006 25.5996 -38.4004 51.2002 -38.4004 89.5996
c0 38.4004 25.6006 76.8008 64 76.8008v0c-64 64 -166.399 102.399 -268.8 102.399c-140.8 0 -268.8 -64 -320 -166.399h25.5996h102.4c12.7998 0 25.5996 -38.4004 0 -38.4004h-51.2002l102.4 -281.6c-38.4004 -12.8008 -76.7998 -12.8008 -115.2 -12.8008l-102.4 268.801
c-25.5996 -51.2002 -38.3994 -102.4 -38.3994 -166.4c0 -38.4004 0 -76.7998 12.7998 -115.2zM1011.2 921.6h-38.4004l51.2002 128l-64 166.4h-38.4004c-25.5996 12.7998 -25.5996 38.4004 0 38.4004h102.4h102.4c12.7998 0 25.5996 -38.4004 0 -38.4004h-51.2002
l115.2 -294.4h-128l-25.6006 64zM1024 627.2c128 0 256 64 320 166.399h51.2002c-76.7998 -128 -217.601 -204.8 -371.2 -204.8s-294.4 76.7998 -371.2 204.8h51.2002c76.7998 -102.399 192 -166.399 320 -166.399zM1024 883.2c230.4 0 448 -12.7998 665.6 -51.2002
c-12.7998 -12.7998 -25.5996 -25.5996 -38.3994 -38.4004c-204.8 38.4004 -422.4 51.2002 -627.2 51.2002s-422.4 -25.5996 -627.2 -51.2002c-12.7998 12.8008 -25.5996 25.6006 -38.3994 25.6006c217.6 38.3994 435.199 64 665.6 64z" />
    <glyph glyph-name="uniF412" unicode="&#xf412;" 
d="M1920 832l-640 -640v448h-1024v704l384 384v-704h640v448z" />
    <glyph glyph-name="uniF516" unicode="&#xf516;" 
d="M1024 1452.42v-467.328h-155.776v467.328h155.776zM1408 1452.42v-467.328h-155.776v467.328h155.776zM323.2 1920h1596.8v-1090.82l-467.456 -445.184h-350.464l-233.6 -256h-228.48v256h-512v1224.32zM1764.22 907.136v857.088h-1285.5v-1129.73h350.977v-211.328
l233.472 211.328h428.16z" />
    <glyph glyph-name="uniF435" unicode="&#xf435;" 
d="M384 512l640 640l640 -640h-1280zM384 1408h1280v-128h-1280v128z" />
    <glyph glyph-name="uniF300" unicode="&#xf300;" 
d="M1536 1536c141.312 0 256 -114.688 256 -256v-384c0 -141.312 -114.688 -256 -256 -256h-448l-448 -448v448h-128c-141.312 0 -256 114.688 -256 256v384c0 141.312 114.688 256 256 256h1024z" />
    <glyph glyph-name="uniF812" unicode="&#xf812;" 
d="M384 1024l640 256l640 -256v-256l-512 204.8v-588.8h-256v588.8l-512 -204.8v256zM1024 1792l640 -256v-256l-640 256l-640 -256v256z" />
    <glyph glyph-name="uniF514" unicode="&#xf514;" 
d="M1664 768v128l256 -256l-256 -256v128h-256c-282.752 0 -512 229.248 -512 512c0 141.312 -114.688 256 -256 256h-384v256h384c282.752 0 512 -229.248 512 -512c0 -141.312 114.688 -256 256 -256h256zM1408 1280c-61.8242 0 -117.888 -22.9121 -162.176 -59.3916
c-27.3926 83.9678 -70.7842 160 -128 224.768c82.5596 56.96 182.271 90.624 290.176 90.624h256v128l256 -256l-256 -256v128h-256zM640 768c61.8242 0 117.888 22.9121 162.176 59.3916c27.3926 -83.9678 70.7842 -160 128 -224.768
c-82.5596 -56.832 -182.271 -90.624 -290.176 -90.624h-384v256h384z" />
    <glyph glyph-name="uniF8A8" unicode="&#xf8a8;" 
d="M1444.22 1096.96c113.664 101.12 286.721 46.9756 294.528 -137.088c-7.80762 -183.937 -181.76 -238.08 -295.296 -136.96c-68.9922 61.3115 -168.192 78.3359 -168.192 -85.376l-0.767578 -281.601c0 -38.9111 -28.9277 -71.9355 -67.9678 -71.9355h-879.616
c-38.9121 0 -70.9121 33.0244 -70.9121 72.0645v334.848c0 16.8955 7.80762 44.2881 23.8076 51.8398c15.4883 7.16797 63.7441 -14.0801 82.9443 -31.4883c59.7764 -54.0156 140.16 -70.1436 208.768 -40.1914c68.6084 29.9521 116.48 99.7119 116.48 187.264v2.56055
c0 87.8076 -47.3604 158.079 -115.584 188.031c-67.9678 29.6963 -147.968 14.7207 -207.488 -39.2959c-19.3281 -17.5361 -68.8633 -39.4238 -84.9922 -31.8721c-16.2559 7.55176 -23.9355 36.2246 -23.9355 53.248v338.048c0 39.04 32 66.9443 70.9121 66.9443h879.616
c38.9121 0 67.9678 -27.9043 67.9678 -66.9443l0.767578 -286.72c0 -163.712 99.9688 -146.688 168.96 -85.376z" />
    <glyph glyph-name="uniF8D4" unicode="&#xf8d4;" 
d="M302.464 302.592c-61.0557 61.0566 -62.0801 158.977 -2.43164 218.88c26.4961 26.3682 93.1836 16.7686 93.1836 16.7686l146.944 -146.561s3.32812 -69.376 -18.8164 -91.6475c-59.7754 -59.6484 -157.695 -58.624 -218.88 2.55957zM1736.32 1725.44
c201.728 -201.984 272.896 -612.097 28.9277 -856.064l-458.368 -458.368l-15.3604 -277.376l-211.199 50.6885l-884.992 884.991s-97.6641 177.921 -57.6006 218.112c40.0645 40.0645 290.944 15.3604 290.944 15.3604l451.584 451.584
c240.769 240.768 634.752 192.256 856.064 -28.9277z" />
    <glyph glyph-name="uniF102" unicode="&#xf102;" 
d="M512 1600v-96.1279l-256 -64v160.128h256zM1408 1408l512 -128v-896h-1792v896l512 128l128 256h512zM1024 512.256c247.552 0 448 200.448 448 448c0 247.424 -200.448 448 -448 448c-247.424 0 -448 -200.576 -448 -448c0 -247.552 200.576 -448 448 -448z
M1024 1280.26c176.768 0 320 -143.231 320 -320c0 -176.768 -143.232 -320 -320 -320s-320 143.232 -320 320c0 176.769 143.232 320 320 320z" />
    <glyph glyph-name="uniF466" unicode="&#xf466;" 
d="M640 1344l-320 -320l320 -320v-320l-640 640l640 640v-320zM1408 1280c282.752 0 512 -229.248 512 -512v-299.904l-150.016 149.889c-99.9688 99.9678 -231.04 150.016 -361.984 150.016h-256v-384l-640 640l640 640v-384h256z" />
    <glyph glyph-name="uniF813" unicode="&#xf813;" 
d="M384 1536h1280v-768h-640l-384 -384v384h-256v768z" />
    <glyph glyph-name="uniF463" unicode="&#xf463;" 
d="M1536 1408l-768 -384l-768 384v128h1536v-128zM0 1216l768 -384l256 128v-448h-1024v704zM1920 1152c70.7842 0 128 -57.3438 128 -128v-640c0 -70.7842 -57.2158 -128 -128 -128h-640c-70.7842 0 -128 57.2158 -128 128v640c0 70.6562 57.2158 128 128 128h640z
M1920 640v128h-256v256h-128v-256h-256v-128h256v-256h128v256h256z" />
    <glyph glyph-name="uniF422" unicode="&#xf422;" 
d="M384 1536h1152v-1024h-1152v1024zM1408 640v640h-896v-640h896z" />
    <glyph glyph-name="uniF201" unicode="&#xf201;" 
d="M1024 128c128 0 256 32 368 80c-16 144 -64 368 -208 688c-288 -96 -560 -304 -704 -576c144 -128 336 -192 544 -192zM1536 288c208 144 352 384 384 640c-192 32 -368 32 -576 0c16 -32 128 -304 192 -640zM128 1088v-64c0 -224 80 -432 224 -592
c176 288 496 496 784 592c-16 48 -48 112 -80 176c-368 -112 -592 -144 -928 -112zM1760 1536c-160 -128 -368 -192 -560 -288c48 -64 64 -112 96 -176c208 48 480 32 624 0c-16 176 -64 336 -160 464zM672 1856c-256 -112 -448 -336 -512 -624c288 -32 688 48 832 96
c-96 192 -192 352 -320 528zM1024 1920c-64 0 -128 -16 -192 -16c128 -208 192 -320 304 -512c128 48 384 128 528 256c-160 160 -384 272 -640 272zM1024 2048c560 0 1024 -464 1024 -1024s-464 -1024 -1024 -1024s-1024 464 -1024 1024s464 1024 1024 1024z" />
    <glyph glyph-name="uniF426" unicode="&#xf426;" 
d="M1664 1024c141.312 0 256 -114.688 256 -256s-114.688 -256 -256 -256h-1280c-141.312 0 -256 114.688 -256 256s114.688 256 256 256h6.52832c-4.35254 20.8643 -6.52832 41.9844 -6.52832 64c0 176.768 143.232 320 320 320
c89.3438 0 169.984 -36.8643 227.968 -95.8721c60.7998 131.84 193.408 223.872 348.032 223.872c211.968 0 384 -171.904 384 -384c0 -45.1836 -9.21582 -87.8076 -23.5518 -128h23.5518z" />
    <glyph glyph-name="uniF446" unicode="&#xf446;" 
d="M1024 1792c424.064 0 768 -343.936 768 -768s-343.936 -768 -768 -768s-768 343.936 -768 768s343.936 768 768 768zM1536 1024c0 282.752 -229.248 512 -512 512c-94.8477 0 -182.528 -27.5195 -258.688 -72.4482l698.368 -698.24
c44.8008 76.1602 72.3203 163.969 72.3203 258.688zM512 1024c0 -282.752 229.248 -512 512 -512c94.7197 0 182.4 27.5195 258.56 72.3203l-698.239 698.239c-44.8008 -76.1592 -72.3203 -163.84 -72.3203 -258.56z" />
    <glyph glyph-name="uniF504" unicode="&#xf504;" 
d="M1664 1536c0 -94.4639 -51.7119 -176.128 -128 -220.544v-163.456c0 -282.752 -229.248 -512 -512 -512c-141.312 0 -256 -114.688 -256 -256v-128h-256v1059.46c-76.1602 44.416 -128 126.08 -128 220.544c0 141.312 114.688 256 256 256s256 -114.688 256 -256
c0 -94.4639 -51.8398 -176.128 -128 -220.544v-490.496c75.5195 44.0322 162.304 71.04 256 71.04c141.312 0 256 114.688 256 256v163.456c-76.2881 44.416 -128 126.08 -128 220.544c0 141.312 114.688 256 256 256s256 -114.688 256 -256zM640 1664
c-70.6562 0 -128 -57.3438 -128 -128s57.3438 -128 128 -128s128 57.3438 128 128s-57.3438 128 -128 128zM1408 1408c70.7842 0 128 57.3438 128 128s-57.2158 128 -128 128s-128 -57.3438 -128 -128s57.2158 -128 128 -128z" />
    <glyph glyph-name="uniF465" unicode="&#xf465;" 
d="M1536 1408l-768 -384l-768 384v128h1536v-128zM0 1216l768 -384l256 128v-448h-1024v704zM1920 1152c70.7842 0 128 -57.3438 128 -128v-640c0 -70.7842 -57.2158 -128 -128 -128h-640c-70.7842 0 -128 57.2158 -128 128v640c0 70.6562 57.2158 128 128 128h640z
M1531.52 384l452.48 452.48l-90.4961 90.4951l-361.984 -361.983l-180.991 180.992l-90.4961 -90.4961z" />
    <glyph glyph-name="uniF424" unicode="&#xf424;" 
d="M1408 1792l384 -384v-768l-384 -384h-768l-384 384v768l384 384h768zM1024 512c70.7842 0 128 57.2158 128 128s-57.2158 128 -128 128c-70.6562 0 -128 -57.2158 -128 -128s57.3438 -128 128 -128zM1113.22 896l51.584 640h-281.6l51.2002 -640h178.815z" />
    <glyph glyph-name="uniF8D3" unicode="&#xf8d3;" 
d="M1024 1920c499.2 0 896 -396.8 896 -896s-396.8 -896 -896 -896s-896 396.8 -896 896s396.8 896 896 896zM896 768v896l-371.2 -640c-38.3994 -76.7998 0 -166.4 76.7998 -179.2zM1523.2 1024c38.3994 76.7998 0 166.4 -76.7998 179.2l-294.4 76.7998v-896z" />
    <glyph glyph-name="uniF418" unicode="&#xf418;" 
d="M1408 1504l128 -96l-512 -768h-128l-288 416l128 128l224 -192z" />
    <glyph glyph-name="uniF429" unicode="&#xf429;" 
d="M1024 1453.31l493.312 -493.312l-493.312 -493.312l-86.6562 86.6553l342.656 342.656h-896v128h896l-342.656 342.656z" />
    <glyph glyph-name="uniF308" unicode="&#xf308;" 
d="M477.696 568.192l543.104 543.104l90.3682 -90.624l-542.976 -542.976c-100.225 -100.353 -152.32 -115.84 -226.305 -135.809c20.0967 74.1123 35.584 126.08 135.809 226.305zM1189.5 1732.61l180.992 180.991l542.976 -543.104l-180.991 -180.992
c-50.0488 50.0479 -130.944 50.0479 -180.992 0l-180.992 -180.992c-50.0479 -50.0479 -50.0479 -130.943 0 -180.992l-180.992 -180.991l-543.104 542.976l180.991 180.992c50.0488 -50.0479 131.072 -50.0479 181.12 0l180.992 181.12
c50.0479 50.0479 50.0479 130.943 0 180.992z" />
    <glyph glyph-name="uniF226" unicode="&#xf226;" 
d="M1477.76 1792c120.32 0 152.576 -68.6084 126.464 -195.584l-51.8398 -258.688c-40.96 -206.848 -88.0635 -445.695 -94.0801 -470.144c-11.0078 -44.1602 -27.9033 -119.168 -132.992 -119.168h-250.367c-9.98438 0 -9.98438 0 -20.0967 -10.1123
c-6.65527 -6.65527 -393.344 -455.424 -393.344 -455.424c-30.208 -34.6875 -80.3838 -28.5439 -98.6875 -21.1201c-18.3047 7.2959 -50.6885 29.6963 -50.6885 89.9844v1301.63s33.2803 138.624 146.304 138.624h819.328zM1394.94 1391.1l34.3037 179.2
c6.27148 29.6963 -16.3838 52.4805 -40.5762 52.4805h-657.536c-29.8242 0 -49.792 -26.8799 -49.792 -49.792v-1015.68c0 -3.19922 2.43262 -3.83984 4.86426 -1.15137c0 0 242.304 290.815 269.184 324.352c26.8809 33.4082 39.168 38.6562 79.3604 38.6562h221.184
c30.208 0 47.2324 25.3438 50.3047 40.1924c3.2002 14.8477 28.9277 149.12 34.4316 176.256s-19.3281 54.9121 -44.7998 54.9121h-270.976c-35.9688 0 -61.8242 25.4717 -61.8242 61.3115v39.04c0 35.9678 25.7275 60.416 61.5674 60.416h319.232
s46.9756 20.4805 51.0723 39.8076z" />
    <glyph glyph-name="uniF205" unicode="&#xf205;" 
d="M1024 1920c493.952 0 896 -401.92 896 -896c0 -493.952 -402.048 -896 -896 -896c-494.08 0 -896 402.048 -896 896c0 494.08 401.92 896 896 896zM218.496 1024c0 -318.848 185.216 -594.432 454.016 -724.992l-384.256 1052.93
c-44.6719 -100.224 -69.7598 -211.071 -69.7598 -327.936zM1024 218.496c93.8242 0 183.808 16.1279 267.648 45.5684c-2.17676 3.45508 -4.09668 7.16797 -5.76074 11.2637l-247.552 678.271l-241.92 -702.336c72.1924 -21.248 148.48 -32.7676 227.584 -32.7676z
M1134.98 1401.73l291.072 -866.176l80.3838 268.544c34.9443 111.488 61.3125 191.488 61.3125 260.48c0 99.584 -35.8398 168.576 -66.4326 222.08c-40.7031 66.4316 -78.9756 122.624 -78.9756 189.056c0 74.1123 56.1924 142.977 135.168 142.977
c3.58398 0 7.04004 -0.384766 10.4961 -0.640625c-143.36 131.328 -334.208 211.456 -544 211.456c-281.472 0 -529.024 -144.256 -673.024 -363.008c18.9443 -0.639648 36.7363 -0.896484 51.8408 -0.896484c84.2236 0 214.655 10.2402 214.655 10.2402
c43.3926 2.56055 48.5127 -61.3115 5.24805 -66.4316c0 0 -43.7754 -5.12012 -92.1602 -7.68066l293.12 -872.575l176.256 528.64l-125.439 343.936c-43.3926 2.56055 -84.4805 7.68066 -84.4805 7.68066c-43.2637 2.55957 -38.2715 68.9922 5.12012 66.4316
c0 0 132.992 -10.2402 212.225 -10.2402c84.2236 0 214.783 10.2402 214.783 10.2402c43.3926 2.56055 48.5127 -61.3115 5.12012 -66.4316c0 0 -43.6475 -5.12012 -92.2881 -7.68066zM1730.82 1410.56c3.58398 -25.7275 5.50391 -53.248 5.63184 -82.8154
c0 -81.792 -15.4883 -173.696 -61.3125 -288.512l-246.144 -711.425c239.488 139.521 400.512 399.104 400.512 696.192c0 140.16 -35.8398 271.872 -98.6875 386.56z" />
    <glyph glyph-name="uniF8D2" unicode="&#xf8d2;" 
d="M184.832 942.336c0 -61.0557 -34.6885 -95.8721 -97.2803 -95.7441c-61.1836 0 -87.5518 32 -87.5518 80.5117c0 61.1846 36.0957 95.8721 97.2803 95.8721c61.0557 0 87.5518 -33.4072 87.5518 -80.6396zM1871.1 269.312
c19.2002 -2.43164 28.6729 12.2881 28.6729 -6.7832c0 -21.5039 -16.7686 -6.65625 -30.9766 -6.65625h-545.664c-19.0713 0 -33.2793 -12.2881 -33.2793 6.65625c0 19.1992 11.9033 6.65527 30.8477 6.65527c54.9121 0 116.736 14.4648 116.736 81.1523
c0 23.8076 -4.73633 50.1758 -16.6406 81.1523l-119.168 317.184c-4.73535 14.208 -7.16797 19.3281 -21.5039 19.3281h-455.168c-71.4238 0 -159.616 1.28027 -200.063 -89.4717l-109.568 -243.969c-11.9043 -26.2393 -19.0723 -49.2793 -19.0723 -68.2236
c0 -85.7598 112 -83.9678 171.648 -83.9678c18.9434 0 30.8477 -0.896484 30.8477 -19.8398c0 -19.2002 -14.3359 -6.65625 -33.2803 -6.65625h-483.84c-16.7676 0 -33.4082 -14.8477 -33.4082 6.65625c0 19.0713 9.60059 4.22363 30.9766 6.65527
c116.735 7.16797 154.88 62.0801 200.191 162.049l574.208 1258.37c26.2402 54.7842 83.584 102.4 135.937 102.4c38.1436 0 49.9199 -21.376 61.9521 -52.4805l498.048 -1308.16c42.8799 -112 109.567 -152.576 221.567 -162.049zM1196.8 896
c33.2803 0 47.6162 -8.19238 47.6162 13.1836c0 9.47266 -2.43164 5.88867 -7.16797 15.4883l-131.072 352.769c-30.9756 81.1514 -76.2881 188.672 -90.624 276.735c0 4.86426 -2.43164 7.68066 -4.73535 7.68066c-2.30469 0 -4.73633 -1.53613 -4.73633 -6.27246
c-16.7686 -59.5195 -40.4482 -114.816 -69.1201 -174.336l-221.568 -486.912c-4.73535 -9.47168 -4.73535 -4.22363 -4.73535 -6.52832c0 -4.99121 4.73535 8.19238 14.208 8.19238h471.936zM1960.32 1022.98c61.1836 0 87.6797 -33.4072 87.6797 -80.6396
c0 -61.0557 -34.6885 -95.8721 -97.4082 -95.8721c-61.1836 0 -87.5518 32 -87.5518 80.5117c0 61.3125 36.0957 96 97.2803 96z" />
    <glyph glyph-name="uniF472" unicode="&#xf472;" 
d="M1368.06 1408h-128l-240.129 -768h128l-39.9355 -128h-448l39.9355 128h128l240.129 768h-128l39.9355 128h448z" />
    <glyph glyph-name="uniF216" unicode="&#xf216;" 
d="M1791.62 1265.92c0.383789 -2.94434 0.639648 -5.75977 0.639648 -8.7041v-466.943c0 -2.94434 -0.255859 -5.76074 -0.511719 -8.96094c-0.12793 -0.767578 -0.383789 -1.79199 -0.511719 -2.81543c-0.384766 -1.79199 -0.640625 -3.58398 -1.15234 -5.50391
c-0.255859 -1.02441 -0.768555 -2.04785 -1.02441 -3.07227c-0.639648 -1.66406 -1.15137 -3.2002 -1.79199 -4.86426c-0.511719 -1.02344 -1.02344 -2.04785 -1.53613 -3.07129c-0.639648 -1.53613 -1.40723 -2.94434 -2.30371 -4.48047
c-0.511719 -0.895508 -1.28027 -1.91992 -1.91992 -2.94434c-0.767578 -1.2793 -1.66406 -2.55957 -2.6875 -3.96777c-0.768555 -0.895508 -1.53613 -1.79199 -2.30469 -2.81543c-1.02344 -1.02441 -2.04785 -2.30469 -3.32812 -3.45605
c-0.767578 -0.896484 -1.66406 -1.79199 -2.6875 -2.68848c-1.02441 -0.895508 -2.30371 -2.04785 -3.71191 -3.07227c-0.768555 -0.767578 -1.79199 -1.53516 -2.81641 -2.30371l-1.15137 -0.767578l-702.208 -467.072
c-11.1367 -7.42383 -23.8086 -11.0078 -36.6084 -11.0078s-25.4717 3.58398 -36.7363 11.2637l-702.208 467.072c-0.255859 0.255859 -0.639648 0.511719 -1.02344 0.767578l-2.94434 2.30469c-1.28027 0.895508 -2.55957 2.04785 -3.71191 3.07129
c-0.895508 0.896484 -1.79199 1.79199 -2.6875 2.68848c-1.02441 1.02344 -2.17676 2.30371 -3.2002 3.45605c-0.768555 0.895508 -1.53613 1.79199 -2.30469 2.81543c-0.895508 1.28027 -1.79199 2.56055 -2.6875 3.96875
c-0.768555 0.895508 -1.4082 1.91992 -1.91992 2.94336c-0.896484 1.53613 -1.66406 2.94434 -2.30371 4.48047c-0.512695 0.895508 -1.02441 1.91992 -1.53613 3.07129c-0.640625 1.66406 -1.15234 3.2002 -1.66406 4.86426
c-0.383789 0.896484 -0.768555 1.91992 -1.02441 3.07227c-0.511719 1.91992 -0.767578 3.71191 -1.15137 5.50391c-0.128906 1.02441 -0.384766 2.04785 -0.512695 2.94434c-0.383789 2.81543 -0.639648 5.75977 -0.639648 8.57617v466.943
c0 2.94434 0.255859 5.75977 0.639648 8.7041c0.12793 0.896484 0.383789 1.79199 0.512695 2.81641c0.383789 1.91992 0.639648 3.71191 1.15137 5.50391c0.255859 1.15137 0.640625 2.17578 1.02441 3.2002c0.511719 1.53516 1.02344 3.19922 1.66406 4.86328
c0.511719 1.02441 1.02344 2.04785 1.53613 3.2002c0.639648 1.53613 1.40723 2.81641 2.30371 4.48047c0.639648 0.895508 1.28027 1.91992 1.91992 2.94336c0.767578 1.28027 1.79199 2.68848 2.6875 3.96875c0.640625 1.02344 1.4082 1.79199 2.30469 2.81543
c1.02344 1.28027 2.04785 2.43164 3.2002 3.58398c0.895508 0.768555 1.79199 1.66406 2.6875 2.68848c1.15234 1.02344 2.43164 2.04785 3.71191 3.07129l2.94434 2.17676c0.383789 0.255859 0.767578 0.639648 1.15137 0.895508l702.208 466.944
c22.1445 14.7197 51.0723 14.7197 73.2168 0l702.08 -467.2c0.383789 -0.255859 0.767578 -0.639648 1.15137 -0.896484c0.896484 -0.767578 1.91992 -1.53516 2.81641 -2.30371c1.2793 -0.895508 2.55957 -1.91992 3.71191 -3.07227
c1.02344 -0.895508 1.91992 -1.79199 2.6875 -2.6875c1.15234 -1.02441 2.17676 -2.17578 3.32812 -3.45605c0.768555 -0.896484 1.53613 -1.79199 2.30469 -2.81641c0.895508 -1.2793 1.79199 -2.55957 2.6875 -3.96777
c0.639648 -0.895508 1.4082 -1.91992 1.91992 -2.94434c0.896484 -1.53516 1.66406 -2.81543 2.30371 -4.35156c0.512695 -1.02441 1.02441 -2.04785 1.53613 -3.2002c0.640625 -1.66406 1.15234 -3.2002 1.79199 -4.73535
c0.255859 -1.02441 0.768555 -2.04883 1.02441 -3.2002c0.511719 -1.79199 0.767578 -3.58398 1.15137 -5.50391c0.128906 -0.896484 0.384766 -1.79199 0.512695 -2.81641zM1090.05 1601.28v-307.328l286.208 -190.977l231.168 154.24zM957.952 1601.28l-517.248 -344.064
l231.04 -154.24l286.208 191.104v307.2zM387.84 1133.95v-220.416l165.12 110.208zM957.952 446.208v307.328l-286.208 190.976l-231.04 -154.111zM1024 867.84l233.472 155.904l-233.472 155.904l-233.472 -155.904zM1090.05 446.208l517.376 344.064l-231.168 154.111
l-286.208 -190.976v-307.2zM1660.29 913.536v220.416l-165.248 -110.208z" />
    <glyph glyph-name="uniF475" unicode="&#xf475;" 
d="M1024 1792c424.064 0 768 -343.936 768 -768s-343.936 -768 -768 -768s-768 343.936 -768 768s343.936 768 768 768zM476.16 1340.54l-2.81641 3.96777c-4.60742 -7.93555 -8.83203 -16.1279 -13.1836 -24.3193l4.47949 1.02344l17.5361 6.27246l30.208 2.6875zM1024 384
c265.088 0 493.056 162.176 590.208 392.576l-6.52832 10.4961l14.9766 50.8154l-34.6885 25.2158l-25.3438 7.55273l-23.5518 19.8398l-55.8086 -21.1201l-52.7354 -3.07227l-39.9365 29.0566l-39.04 53.5039l-0.767578 32.5117l0.895508 54.2725l5.63184 7.55176
l4.86426 18.1758l22.7842 35.0723l13.3125 13.0557l18.6875 20.7363l13.0557 25.5996l36.8643 34.9443l37.7598 -0.383789l27.6484 9.59961l66.4316 7.16797l25.9844 -36.8643l24.1924 -10.4961c-8.44824 39.4248 -20.2246 77.6963 -35.585 114.049l-5.50391 5.11914
l-13.4395 -6.65527l-28.9277 -2.68848l-23.8086 -21.248l-25.9834 -35.0723l-50.6885 -11.6475l-23.5518 9.21582l2.6875 40.5762l13.3125 25.2158l46.4639 -2.6875l8.57617 21.8877l-24.0645 26.624l20.6084 8.32031l40.4482 22.0156l14.4639 11.6484
c-49.1523 77.6953 -113.664 144.256 -190.721 194.688l-4.35156 -1.79199l20.3516 -17.792l-32.8955 5.24805l-4.6084 -9.34375l21.248 -2.56055l-7.93555 -8.95996l-59.9043 -10.3682l-77.3115 -34.3037l-59.9043 -28.9277l-6.27246 59.6475l16.8965 32.6406
l-12.416 21.7598l-45.9521 19.4561l-22.1436 17.1523l32.1279 7.67969l69.1201 16.8955l29.8232 1.66406c-64.7676 22.1445 -132.991 36.7363 -205.056 36.7363c-146.56 0 -280.064 -51.4561 -388.096 -134.656l38.2715 1.15234l47.7441 -12.2881l32 -8.19238
l34.8164 7.80859l47.6152 -6.0166l29.9521 7.2959l5.63184 18.0488l28.1602 -2.94434l11.0078 -22.7842l47.6162 4.35254l-74.752 -24.7041l-36.0957 -20.8643l-55.168 -42.2402l13.6963 -14.9756l38.3994 -18.0479l27.3926 -28.0322l33.6641 34.4316l19.4551 37.8887
l33.0244 22.6553l33.0244 -16.7676l9.08789 -18.4316l28.9277 10.2393l10.2402 -55.168l20.4795 -20.0957l-74.752 -19.0723l-54.7842 -21.5039l42.752 11.7764l-5.24707 -17.1523l13.5674 -15.3604l11.2646 -7.16797l-45.9521 -18.6875l16.1279 18.8154l-25.9844 -5.63184
l-31.2314 -14.8477l-14.208 -16.5117l-34.9443 -19.3281l-25.6006 -20.2246l-9.72754 -23.4238l-32.7676 -26.752l-25.8564 -59.3916l-8.06348 -25.7285l-23.6807 47.4883l-46.208 -0.12793l-38.3994 0.255859l-49.2803 -39.6797l-6.52832 -43.5205l29.6963 -32.3838
l57.2158 30.7197l-14.8477 -43.5195l-40.4482 -26.1123l-39.2959 9.47266l-43.5205 18.1758l-49.9199 79.1035l-22.1436 47.2324l-5.24805 16.2559l7.42383 -66.0479l-0.639648 -17.1523l-8.19238 10.2402l-4.99219 16.6396l-9.9834 12.416l-5.12012 22.9121
l-0.255859 35.9678l-26.752 46.3359c-17.4082 -58.1113 -29.5684 -118.399 -29.5684 -182.144c0 -295.936 202.88 -543.232 476.16 -616.192l-4.0957 12.6729l-9.60059 137.6l-11.1357 62.8477l-67.3281 65.792l-31.7441 56.3203l-10.624 27.9043l7.67969 16.5117
l14.0801 52.9922l7.55273 61.6953l-8.32031 4.73633l-14.9756 -10.8799l-19.9688 9.34375l13.4404 6.27246l59.9043 13.8242l39.4238 17.6631l-2.43262 -26.752l14.5928 24.1924l19.7119 -6.91211l67.7119 -21.6318l48.5117 -33.6641l34.9443 -19.3281l8.31934 -5.50391
l-8.19141 -48.7676l33.4082 9.47168l-8.32031 -16.6396l47.3604 -10.1123l48 -3.96777l31.3594 -19.7119l1.28027 -57.3447l-22.7842 -65.4072l-27.6475 -68.0967l-50.1768 -30.8477l-39.9355 -90.8799l-36.0957 5.12012l17.1514 -23.4238l-1.91992 -16.5127
l-33.2803 -26.4961c19.4561 -1.79199 38.1445 -5.8877 57.9844 -5.8877z" />
    <glyph glyph-name="uniF8D6" unicode="&#xf8d6;" 
d="M1792 1446.4h-64c-25.5996 0 -51.2002 -38.4004 -51.2002 -51.2002v-755.2c0 -25.5996 25.6006 -51.2002 51.2002 -51.2002h64v-179.2h-550.4v179.2h115.2v806.4v0l-268.8 -972.8h-204.8l-268.8 972.8h-12.8008v-793.601h115.2v-179.199h-460.8v179.199h64
c25.5996 0 51.2002 25.6006 51.2002 51.2002v742.4c0 25.5996 -25.6006 51.2002 -51.2002 51.2002h-64v179.199h576l192 -704v0l192 704h576v-179.199v0z" />
    <glyph glyph-name="uniF432" unicode="&#xf432;" 
d="M1408 640l-448 448l-448 -448l-128 128l576 576l576 -576z" />
    <glyph glyph-name="uniF8D9" unicode="&#xf8d9;" 
d="M512 320c0 179.2 140.8 320 320 320h320v-320c0 -179.2 -140.8 -320 -320 -320s-320 140.8 -320 320zM1152 1792c64 0 128 -64 128 -128v-768c0 -64 -64 -128 -128 -128h-1024c-64 0 -128 64 -128 128v768c0 64 64 128 128 128h192l128 256h384l128 -256h192zM640 1024
c140.8 0 256 115.2 256 256s-115.2 256 -256 256s-256 -115.2 -256 -256s115.2 -256 256 -256zM1408 1536h640v-1216c0 -179.2 -140.8 -320 -320 -320s-320 140.8 -320 320s140.8 320 320 320h64v512h-384v384z" />
    <glyph glyph-name="uniF210" unicode="&#xf210;" 
d="M1024 2048c565.632 0 1024 -458.496 1024 -1024c0 -565.632 -458.368 -1024 -1024 -1024c-100.864 0 -198.016 14.7197 -290.176 42.1123c38.7842 61.4395 81.2793 140.288 103.04 219.264c12.6719 45.5684 72.0635 281.6 72.0635 281.6
c35.7119 -67.9678 139.648 -127.743 250.24 -127.743c329.088 0 552.448 300.159 552.448 701.823c0 303.744 -257.28 586.624 -648.192 586.624c-486.527 0 -731.904 -348.8 -731.904 -639.744c0 -176.128 66.5605 -332.928 209.664 -391.168
c23.4248 -9.59961 44.416 -0.511719 51.2002 25.4727c4.73633 18.0479 16 63.4873 20.9922 82.1758c6.78418 25.7275 4.0957 34.6875 -14.8477 57.2158c-41.0879 48.6406 -67.4561 111.488 -67.4561 200.704c0 258.816 193.536 490.496 504.063 490.496
c274.944 0 426.112 -168.064 426.112 -392.448c0 -295.296 -130.432 -544.384 -324.608 -544.384c-107.136 0 -187.264 88.5762 -161.664 197.12c30.7207 129.664 90.4961 269.824 90.4961 363.392c0 83.8398 -44.9277 153.729 -138.111 153.729
c-109.44 0 -197.504 -113.28 -197.504 -265.088c0 -96.6406 32.7676 -162.049 32.7676 -162.049s-112.128 -474.88 -131.712 -557.951c-18.4316 -77.8242 -20.7363 -163.456 -17.9199 -235.137c-360.832 158.336 -612.992 518.784 -612.992 937.984
c0 565.504 458.496 1024 1024 1024z" />
    <glyph glyph-name="uniF811" unicode="&#xf811;" 
d="M512 640v384h256v-384h-256zM896 640v256h256v-256h-256zM1408 1664l384 -384h-256v-640h-256v640h-256z" />
    <glyph glyph-name="uniF437" unicode="&#xf437;" 
d="M1280 1792c141.312 0 256 -114.688 256 -256v-1024c0 -141.312 -114.688 -256 -256 -256h-512c-141.312 0 -256 114.688 -256 256v1024c0 141.312 114.688 256 256 256h512zM1024 384c70.7842 0 128 57.2158 128 128s-57.2158 128 -128 128
c-70.6562 0 -128 -57.2158 -128 -128s57.3438 -128 128 -128zM1408 768v768h-768v-768h768z" />
    <glyph glyph-name="uniF468" unicode="&#xf468;" 
d="M256 256v1536h256v-1536h-256zM1536 1664h256v-768h-256c-256 0 -256 128 -512 128s-256 -128 -384 -128v768c128 0 128 128 384 128s256 -128 512 -128z" />
    <glyph glyph-name="uniF8A5" unicode="&#xf8a5;" 
d="M901.76 664.96l31.1045 124.288l124.16 -30.9756l-46.4648 -186.24c-8.44727 -34.3047 -43.1357 -55.04 -77.4395 -46.5918l-372.736 93.1836c-34.1758 8.57617 -54.9121 43.1357 -46.4639 77.5684l46.4639 186.239l124.16 -31.1035l-30.9756 -124.288zM1600 1616v-928
l-1344 336v256zM1664 1632l128 32v-1024l-128 32v960z" />
    <glyph glyph-name="uniF442" unicode="&#xf442;" 
d="M1280 640v256l128 128v-512h-896v896h512l-128 -128h-256v-640h640zM1024 1664h640v-640h-128v421.504l-549.504 -549.504l-90.4961 90.4961l549.504 549.504h-421.504v128z" />
    <glyph glyph-name="uniF410" unicode="&#xf410;" 
d="M256 1536h1536v-128l-768 -384l-768 384v128zM256 1216l768 -384l768 384v-704h-1536v704z" />
    <glyph glyph-name="uniF221" unicode="&#xf221;" 
d="M1664 1024c0 -55.9355 -35.9678 -102.912 -85.8877 -120.32c13.8232 -20.6074 21.8877 -45.0557 21.8877 -71.6797c0 -55.8076 -35.9678 -102.784 -85.8877 -120.32c13.8232 -20.6074 21.8877 -45.0557 21.8877 -71.6797c0 -70.6562 -57.3438 -128 -128 -128h-64
c70.6562 0 128 -57.3438 128 -128s-57.3438 -128 -128 -128h-448c-192 0 -256 128 -384 128h-128v640h192c128 0 320 256 320 640c0 0 0 128 64 128s192 -144 192 -320c0 -192 -32 -320 -32 -320h416c70.6562 0 128 -57.3438 128 -128z" />
    <glyph glyph-name="uniF50A" unicode="&#xf50a;" 
d="M1856 1024c35.3281 0 64 -28.6719 64 -64s-28.6719 -64 -64 -64h-204.928c-9.85645 -48.7676 -26.624 -94.5918 -46.8486 -138.624c116.608 -134.528 187.776 -309.376 187.776 -501.376v-64c0 -35.2002 -28.6719 -64 -64 -64s-64 28.7998 -64 64v64
c0 144.896 -48.7676 277.888 -130.048 385.152c-116.736 -155.265 -300.672 -257.152 -509.952 -257.152c-208.768 0 -392.448 101.504 -509.312 256.128c-81.2803 -106.88 -130.688 -239.231 -130.688 -384.128v-64c0 -35.2002 -28.6719 -64 -64 -64s-64 28.7998 -64 64v64
c0 192 71.2959 366.72 187.904 501.376c-20.3525 44.0322 -36.9922 89.8564 -46.9766 138.624h-204.928c-35.3281 0 -64 28.6719 -64 64s28.6719 64 64 64h192c0 61.6963 12.1602 119.936 29.0557 176c-98.1758 129.024 -157.056 289.408 -157.056 464v64
c0 35.3281 28.6719 64 64 64s64 -28.6719 64 -64v-64c0 -353.408 286.592 -640 640 -640c353.536 0 640 286.592 640 640v64c0 35.3281 28.6719 64 64 64s64 -28.6719 64 -64v-64c0 -173.952 -58.4961 -333.824 -156.032 -462.592
c17.2803 -56.3203 28.0322 -115.328 28.0322 -177.408h192zM1024 1152c-208.896 0 -388.352 126.08 -467.84 305.92c116.864 126.08 282.496 206.08 467.84 206.08c185.472 0 350.976 -80 467.84 -206.08c-79.4883 -179.84 -258.815 -305.92 -467.84 -305.92zM1152 640
c0 70.7842 -57.3438 128 -128 128v0c-70.6562 0 -128 -57.2158 -128 -128v-384c0 -70.7842 57.3438 -128 128 -128v0c70.6562 0 128 57.2158 128 128v384z" />
    <glyph glyph-name="uniF455" unicode="&#xf455;" 
d="M1024 1792c424.064 0 768 -343.936 768 -768s-343.936 -768 -768 -768c-424.192 0 -768 343.936 -768 768s343.808 768 768 768zM1024 1536c-70.7842 0 -128 -57.3438 -128 -128s57.2158 -128 128 -128c70.6562 0 128 57.3438 128 128s-57.3438 128 -128 128zM1280 512
v128h-160v512h-320.128v-128h128.128v-384h-160v-128h512z" />
    <glyph glyph-name="uniF223" unicode="&#xf223;" 
d="M1105.28 1232.51v92.9287c0 44.1592 -36.4805 79.8711 -81.2803 79.8711s-81.2803 -35.7119 -81.2803 -79.8711l-0.383789 -481.024c-2.55957 -184.192 -155.008 -332.416 -342.912 -332.416c-189.696 0 -343.424 150.912 -343.424 337.28v209.151h262.784v-206.592
c0 -43.9043 36.3516 -79.7441 81.2803 -79.7441c44.9277 0 81.2793 35.7119 81.2793 79.7441v487.168c6.65625 180.48 157.185 324.992 342.656 324.992c186.112 0 337.152 -145.536 342.656 -327.04v-106.624l-156.416 -45.8242zM1529.22 1058.43h262.784v-209.151
c0 -186.368 -153.728 -337.28 -343.424 -337.28c-188.544 0 -341.632 149.376 -343.296 334.08v210.304l104.96 -48l156.288 45.8242v-211.84c0 -44.2881 36.3516 -80 81.4072 -80c44.9287 0 81.2803 35.7119 81.2803 80v216.063z" />
    <glyph glyph-name="uniF212" unicode="&#xf212;" 
d="M1658.75 1791.87c184.192 -5.37598 270.976 -123.776 260.352 -355.072c-7.93555 -172.928 -129.792 -409.472 -365.439 -710.016c-243.584 -313.729 -449.792 -470.784 -618.368 -470.784c-104.448 0 -192.896 95.6162 -264.96 286.72
c-48.2559 175.232 -96.5117 350.336 -144.64 525.568c-53.6318 190.976 -111.232 286.592 -172.672 286.592c-13.4404 0 -60.416 -27.7764 -140.673 -83.584l-84.3516 107.648c88.4482 77.0557 175.616 154.111 261.504 231.168
c117.888 100.991 206.464 154.111 265.472 159.487c139.521 13.3125 225.28 -81.2793 257.536 -283.392c34.8164 -218.24 58.8799 -353.92 72.4482 -407.04c40.1924 -180.992 84.4805 -271.36 132.736 -271.36c37.5039 0 93.8232 58.752 169.088 176.128
c75.0078 117.376 115.2 206.849 120.576 268.16c10.624 101.376 -29.4404 152.192 -120.576 152.192c-43.0078 0 -87.2959 -9.98438 -132.736 -29.1846c88.0645 285.952 256.512 424.704 504.704 416.769z" />
    <glyph glyph-name="uniF206" unicode="&#xf206;" 
d="M571.904 570.112c-36.4805 0 -71.6807 -1.02441 -110.208 -1.02441c-127.36 0 -240.513 -32 -333.696 -83.3281v484.864c78.0801 -78.208 189.696 -126.208 329.984 -126.336c20.2236 0 39.6797 1.02344 58.8799 2.43164
c-18.8164 -35.9678 -32.2559 -76.1602 -32.2559 -118.271c0 -70.9121 39.04 -111.36 87.2959 -158.336zM575.232 937.088c-163.584 4.86426 -319.104 155.008 -347.265 369.792c-28.2881 214.912 81.4082 379.264 244.992 374.4
c163.584 -4.86426 303.488 -181.12 331.648 -396.032c28.2881 -214.784 -65.9199 -353.024 -229.376 -348.16zM965.504 217.856c4.99219 -21.248 7.80762 -43.1367 7.80762 -65.5361c0 -8.19238 -0.639648 -16.2559 -1.02344 -24.3203h-588.288
c-115.328 0 -211.712 76.7998 -243.712 181.504c74.8799 110.72 228.224 189.824 401.408 187.904c56.832 -0.640625 109.823 -9.72852 157.952 -25.3438c132.352 -91.9043 238.976 -149.376 265.855 -254.208zM1920 1536h-256v256h-128v-256h-256v-128h256v-256h128v256
h256v-1024.13c0 -141.312 -114.688 -256 -256 -256h-506.624c2.55957 16.7676 4.22363 33.5361 4.22363 50.3037c0 183.937 -39.6797 276.48 -235.647 423.424c-56.1924 42.2402 -178.688 128.769 -178.688 186.881c0 67.9678 19.4561 101.632 121.856 181.504
c104.96 82.0479 179.328 190.208 179.328 324.352c0 146.176 -59.7764 278.912 -172.16 343.296h159.36l135.68 142.464h-606.977c-174.336 0 -332.159 -72.832 -436.352 -181.376v65.2803c0 141.312 114.688 256 256 256h1280c141.312 0 256 -114.688 256 -256v-128z" />
    <glyph glyph-name="uniF407" unicode="&#xf407;" 
d="M1280 1536l256 -128v-128h-128h-128h-128h-128h-128h-128h-128h-128h-128v128l256 128c0 70.7842 57.3438 128 128 128h384c70.7842 0 128 -57.2158 128 -128zM1088 1408c35.3281 0 64 28.6719 64 64s-28.6719 64 -64 64h-256c-35.3281 0 -64 -28.6719 -64 -64
s28.6719 -64 64 -64h256zM1280 1216h128v-704c0 -70.7842 -57.2158 -128 -128 -128h-640c-70.6562 0 -128 57.2158 -128 128v704h128v-704h128v704h128v-704h128v704h128v-704h128v704z" />
    <glyph glyph-name="uniF414" unicode="&#xf414;" 
d="M1996.03 601.984c116.992 -190.208 29.6953 -345.984 -193.536 -345.984h-1556.99c-223.231 0 -310.528 155.776 -193.536 345.984l759.552 1236.99c116.864 190.336 308.097 190.336 424.961 0zM1024 512c70.7842 0 128 57.2158 128 128s-57.2158 128 -128 128
c-70.6562 0 -128 -57.2158 -128 -128s57.3438 -128 128 -128zM1113.22 896l51.584 640h-281.6l51.2002 -640h178.815z" />
    <glyph glyph-name="uniF803" unicode="&#xf803;" 
d="M1554.25 1382.38c69.25 -102.25 109.75 -225.625 109.75 -358.375c0 -353.5 -286.5 -640 -640 -640c-353.438 0 -640 286.5 -640 640s286.562 640 640 640c144 0 275.5 -49.25 382.5 -129.5l-510.5 -510.5l-160 160l-128 -128l288 -416h128z" />
    <glyph glyph-name="uniF814" unicode="&#xf814;" 
d="M1620.48 1416.06c29.0557 -77.8242 43.5195 -164.225 43.5195 -258.688c0 -84.4795 -11.7764 -158.336 -34.9443 -221.568c-23.2959 -63.3594 -53.248 -116.352 -89.8555 -159.359c-36.6084 -42.8799 -76.416 -70.6562 -121.856 -96.6406
c-83.9678 -47.8721 -194.815 -47.2314 -247.424 -3.96777c-29.4395 24.1924 -50.6875 58.8799 -56.7041 104.064h-4.0957c-34.4316 -39.9365 -73.8564 -72.96 -118.017 -99.7119c-44.0312 -26.8809 -88.96 -40.1924 -134.399 -40.1924
c-70.4004 0 -129.536 24.4482 -177.152 73.9844c-47.4873 49.5352 -71.5518 121.472 -71.5518 216.191c0 55.04 9.47168 110.977 28.0322 168.064c18.6875 56.96 45.1836 108.288 79.8721 154.368c34.4316 45.9512 76.1602 83.3271 125.312 112.128
c48.8965 28.9277 103.809 43.2637 164.48 43.2637c35.7119 0 67.584 -7.80762 95.2314 -23.6797c27.5205 -15.7441 51.0723 -40.832 70.2725 -75.1367h4.22363l22.7842 82.4326h113.792l-80.6396 -411.904c-24.1924 -94.4639 -18.5605 -158.08 12.1592 -196.096
c34.1768 -38.7842 113.28 -22.1445 147.456 -2.17578c29.8242 17.4072 56.7041 43.6475 81.1523 77.6953c24.4482 33.9199 44.416 75.3926 59.5205 124.672c14.9756 49.1523 22.6553 105.217 22.6553 167.809c0 76.6719 -11.0078 147.84 -33.0234 213.76
c-22.0166 65.9199 -55.04 122.368 -99.2002 169.728c-44.2881 47.2324 -98.9443 84.3525 -164.353 111.232c-65.6631 26.752 -141.184 40.1924 -226.815 40.1924c-84.4805 0 -166.272 -17.6641 -245.632 -52.7363c-79.4883 -35.2002 -150.145 -84.7363 -211.712 -148.608
c-61.8242 -63.8721 -111.232 -141.184 -148.353 -231.936c-37.1201 -90.8799 -55.8076 -192.512 -55.8076 -305.024c0 -93.1836 14.208 -176.384 42.4961 -249.216c28.2881 -72.96 67.584 -134.144 118.144 -184.063c50.4326 -49.9199 109.824 -87.9365 178.561 -114.048
c68.7354 -26.2402 143.487 -39.4248 224 -39.4248c57.9834 0 112.896 8.06445 164.479 24.0645c51.7119 15.8721 98.8164 36.6074 141.568 62.3359l41.7275 -94.0801c-107.264 -65.2803 -226.943 -97.792 -359.168 -97.792c-93.1836 0 -180.096 14.7197 -260.864 44.0322
c-80.5117 29.4395 -150.911 73.2158 -210.688 131.456c-59.7764 58.2393 -107.008 130.048 -141.696 215.936c-34.8154 85.5039 -51.9678 183.68 -51.9678 295.04c0 127.872 20.9922 244.225 63.3604 349.056c42.2393 104.832 99.4561 194.305 171.903 268.416
c72.4482 74.1123 156.288 131.456 251.393 171.648c95.1035 40.1924 195.584 60.416 301.439 60.416c95.7441 0 181.632 -15.3604 257.92 -46.0801c76.1602 -30.7197 141.185 -73.8555 194.561 -129.536c53.6318 -55.5518 94.7197 -122.368 123.904 -200.319zM1080.19 876.8
l60.0312 327.424c-19.584 31.6162 -39.5518 53.7607 -60.1592 66.9443c-20.7363 12.9277 -44.9287 19.584 -72.3203 19.584c-41.6006 0 -78.4639 -11.1357 -110.848 -33.1523c-32.3848 -21.8877 -60.0322 -50.0479 -82.8164 -84.4795
c-22.9121 -34.0479 -39.9365 -72.0645 -51.8398 -113.152c-11.7764 -41.2158 -17.5361 -81.0234 -17.5361 -119.424c0 -65.792 13.8242 -113.28 41.4717 -142.08c27.3926 -28.7998 62.0801 -43.0078 103.552 -43.0078c28.9287 0 59.1367 9.34375 89.9844 28.7998
c31.1045 18.8164 64.6396 50.0479 100.48 92.5439z" />
    <glyph glyph-name="uniF509" unicode="&#xf509;" 
d="M1534.21 717.824l147.712 -88.5762c-134.4 -223.36 -378.24 -373.248 -657.92 -373.248c-279.552 0 -523.52 149.888 -657.92 373.248l147.712 88.7041c92.1602 -98.1758 226.816 -168.96 382.208 -194.688v500.736h-128v128h128v163.456
c-76.1602 44.416 -128 126.08 -128 220.544c0 141.312 114.688 256 256 256s256 -114.688 256 -256c0 -94.4639 -51.7119 -176.128 -128 -220.544v-163.456h128v-128h-128v-500.864c155.52 25.7285 289.92 96.3838 382.208 194.688zM1024 1664
c-70.6562 0 -128 -57.3438 -128 -128s57.3438 -128 128 -128c70.7842 0 128 57.3438 128 128s-57.2158 128 -128 128z" />
    <glyph glyph-name="uniF461" unicode="&#xf461;" 
d="M1024 384l-647.552 612.992c-149.376 141.312 -161.408 383.231 -27.1367 540.288c134.4 157.184 364.416 169.855 513.792 28.5439l160.896 -152.32l160.768 152.32c149.248 141.184 379.393 128.64 513.792 -28.5439
c134.656 -157.057 122.368 -398.977 -27.0078 -540.416z" />
    <glyph glyph-name="uniF470" unicode="&#xf470;" 
d="M1536 1152c70.7842 0 128 -57.3438 128 -128v-640c0 -70.7842 -57.2158 -128 -128 -128h-1024c-70.6562 0 -128 57.2158 -128 128v640c0 70.6562 57.3438 128 128 128v128c0 282.752 229.248 512 512 512s512 -229.248 512 -512v-128zM768 1152h512v128
c0 141.312 -114.688 256 -256 256s-256 -114.688 -256 -256v-128z" />
    <glyph glyph-name="uniF50C" unicode="&#xf50c;" 
d="M1479.55 819.2c98.5605 -32 203.137 -51.2002 312.448 -51.2002v-512c-848.256 0 -1536 687.744 -1536 1536h512c0 -162.048 38.5283 -314.752 105.856 -450.816l-189.185 -189.184c136.192 -235.008 344.96 -422.4 595.328 -532.224z" />
    <glyph glyph-name="uniF220" unicode="&#xf220;" 
d="M1856.77 834.048c32.3848 -65.6641 50.6885 -138.88 50.3047 -217.344c0 -269.696 -218.88 -488.704 -488.576 -488.704c-83.584 0 -161.92 21.376 -230.656 58.1123c-50.4316 -8.83203 -102.016 -13.8242 -154.496 -13.8242
c-465.279 0 -842.624 377.216 -842.624 842.496c0 58.2402 6.14453 114.688 17.2803 169.6c-42.4961 72.1924 -67.0723 156.8 -67.0723 246.912c0 269.824 218.88 488.704 488.704 488.704c95.7441 0 184.704 -27.3916 260.225 -75.0078
c46.4639 7.80762 94.5918 12.416 143.871 12.416c465.408 0 842.624 -377.344 842.624 -842.624c0 -62.0801 -6.65527 -122.752 -19.584 -180.736zM1466.11 612.096c38.9121 55.5527 58.624 118.656 58.752 188.16c0 58.2402 -11.2646 107.904 -34.1758 148.353
c-22.9121 40.3193 -54.7842 73.8555 -95.2324 100.224c-39.168 25.7275 -87.8076 48.1279 -143.744 66.0479c-55.4238 17.9199 -118.271 34.1758 -186.496 48.6396c-53.7598 12.416 -93.0557 21.8887 -116.479 28.6729c-23.04 6.14355 -45.4404 15.2314 -67.8398 26.3672
c-21.8887 10.624 -38.5283 23.5527 -50.4326 38.0166c-11.1357 13.9521 -16.7676 30.3359 -16.7676 49.2803c0 31.2314 16.8955 57.4717 52.2236 80.5117c36.3525 23.5518 85.6318 35.9678 146.048 35.9678c64.8965 0 112.384 -11.2637 140.544 -32.6396
c29.1846 -21.6318 54.2725 -53.6318 75.5205 -93.3125c18.5596 -31.3594 34.9434 -53.248 50.6875 -67.2002c16.3838 -14.5918 40.5762 -22.3994 71.9365 -22.3994c34.9434 0 63.8721 12.416 86.9121 36.4795c23.04 23.4248 34.6875 50.8164 34.6875 81.1523
c0 31.3604 -9.08789 63.3604 -25.2158 95.7441c-17.2803 32.3838 -44.7998 63.1035 -81.9199 92.2881c-36.8643 28.5439 -83.8398 52.0957 -139.008 69.5039c-55.8086 16.7676 -121.729 25.5996 -196.736 25.5996c-94.7197 0 -177.536 -13.1836 -247.424 -39.04
c-70.5283 -26.3682 -125.952 -64.3838 -163.584 -113.664c-38.0166 -49.2793 -56.96 -106.496 -56.96 -170.239c0 -67.2002 17.792 -123.776 54.2715 -169.217c35.0723 -44.1592 83.9688 -79.8721 144.385 -105.728c58.752 -25.2158 133.247 -47.3604 220.672 -66.0479
c64.2559 -13.3125 115.712 -26.2402 154.239 -38.0166c36.8643 -11.2637 67.3281 -27.9033 89.9844 -49.2793c22.1436 -20.7363 32.6396 -46.9766 32.6396 -80.1279c0 -42.3682 -20.2236 -76.8008 -62.0801 -105.345c-43.1357 -29.0557 -100.352 -43.9033 -169.728 -43.9033
c-50.9443 0 -92.416 7.16797 -122.624 21.6318c-30.3359 13.9521 -54.2715 32.5117 -70.5283 54.2715c-17.2793 22.6562 -33.4072 51.4561 -48.6396 85.7607c-13.4404 31.3594 -29.5684 55.8076 -49.2803 72.0635c-20.7354 17.2803 -45.3115 25.7285 -74.4961 25.7285
c-35.0713 0 -64.7676 -10.3682 -87.8076 -32.3848c-23.5518 -21.8877 -35.3281 -48.6396 -35.3281 -79.6152c0 -48.8965 17.9199 -100.608 53.8877 -152.192c35.0723 -50.9443 82.3047 -92.416 138.752 -123.136c79.3604 -41.8564 180.864 -63.1045 301.696 -63.1045
c100.736 0 189.44 15.4883 263.04 46.208c75.3926 30.9766 132.225 74.4961 171.648 129.92z" />
    <glyph glyph-name="uniF415" unicode="&#xf415;" 
d="M1408 1024h512v-256h-310.016c-98.8164 -225.92 -323.584 -384 -585.984 -384c-176.768 0 -335.488 72.832 -451.072 188.928l0.640625 0.640625c-50.0488 50.0479 -50.0488 130.943 0 180.991c50.0479 50.0488 130.943 50.1768 180.991 0
c69.376 -69.6318 163.456 -114.56 269.44 -114.56c212.096 0 384 171.904 384 384zM1024 1408c-212.096 0 -384 -171.904 -384 -384h-512v256h310.016c98.8164 225.92 323.712 384 585.984 384c176.896 0 335.488 -72.96 451.072 -188.928
c50.0479 -50.0479 50.0479 -130.944 0 -180.992s-130.944 -50.0479 -180.992 0l-0.639648 -0.639648c-69.376 69.6318 -163.328 114.56 -269.44 114.56zM832 1024c0 106.112 86.0156 192 192 192c106.112 0 192 -85.8877 192 -192s-85.8877 -192 -192 -192
c-105.984 0 -192 85.8877 -192 192z" />
    <glyph glyph-name="uniF207" unicode="&#xf207;" 
d="M604.672 256h-329.216v990.72h329.216v-990.72zM440.064 1381.89h-2.04883c-110.464 0 -182.016 76.1602 -182.016 171.137c0 97.1514 73.5996 171.136 186.368 171.136c112.512 0 181.888 -74.1123 184.063 -171.136c0 -94.9766 -71.5518 -171.137 -186.367 -171.137z
M1792 256h-329.216v530.048c0 133.12 -47.3604 224 -166.656 224c-91.1357 0 -145.28 -61.1836 -169.088 -120.32c-8.57617 -21.2471 -10.752 -50.9434 -10.752 -80.5117v-553.216h-329.344s4.35156 897.792 0 990.72h329.344v-140.416
c43.7764 67.4561 121.984 163.584 296.448 163.584c216.704 0 379.264 -141.567 379.264 -445.823v-568.064z" />
    <glyph glyph-name="uniF500" unicode="&#xf500;" 
d="M2048 0h-1920l960 959.872z" />
    <glyph glyph-name="uniF8D1" unicode="&#xf8d1;" 
d="M344.576 1539.84l679.424 238.977l679.424 -238.977s-163.712 -817.792 -679.424 -1270.78c-515.84 452.992 -679.424 1270.78 -679.424 1270.78zM1512.06 1458.3v-0.12793h-267.776l-220.288 -552.96l-220.16 552.96h-268.032l90.8809 -228.352h20.7354
c25.2158 0 38.0166 -31.8721 38.1445 -32.2559l239.743 -590.849h197.377l236.928 584.064l2.81543 7.04004c0.12793 0.255859 13.0566 32.1279 38.1445 32.1279h20.7354zM1750.27 1672.96c65.792 -23.04 105.088 -92.2881 91.6475 -160.896
c-7.16797 -35.3281 -179.328 -870.145 -724.608 -1348.99c-25.9834 -22.6562 -58.8799 -35.0723 -93.3115 -35.0723c-34.3037 0 -67.3281 12.416 -93.0557 34.9443c-545.536 478.976 -717.568 1313.79 -724.736 1349.12c-13.8242 68.6074 25.5996 137.855 91.5195 160.896
l679.425 239.104c15.1035 5.24707 30.8477 7.93555 46.9756 7.93555c16 0 31.7441 -2.68848 46.8477 -7.93555zM1779.07 1524.61c7.42383 37.5039 -13.9521 75.3916 -50.0479 88.1914l-679.297 239.104c-16.6396 5.75977 -34.6875 5.8877 -51.4551 0l-679.297 -239.104
c-36.0957 -12.7998 -57.5996 -50.6875 -50.1758 -88.1914c6.91211 -34.3047 175.872 -849.664 704.256 -1313.66c13.6963 -12.0322 31.8721 -18.6885 51.0723 -18.6885c19.0723 0 37.248 6.65625 50.8164 18.6885c530.048 465.536 697.344 1279.23 704.128 1313.66z" />
    <glyph glyph-name="uniF302" unicode="&#xf302;" 
d="M1024 1536h512v-512l-768 -768l-512 512zM1280 1152c70.7842 0 128 57.2158 128 128s-57.2158 128 -128 128s-128 -57.2158 -128 -128s57.2158 -128 128 -128z" />
    <glyph glyph-name="uniF108" unicode="&#xf108;" 
d="M1664 1536c141.312 0 256 -114.688 256 -256v-384c0 -141.312 -114.688 -256 -256 -256h-128v-448l-448 448h-331.008l128 128h395.008c211.712 0 384 172.288 384 384v384zM1280 1792c141.312 0 256 -114.688 256 -256v-384c0 -141.312 -114.688 -256 -256 -256h-448
l-448 -448v448h-128c-141.312 0 -256 114.688 -256 256v384c0 141.312 114.688 256 256 256h1024z" />
    <glyph glyph-name="uniF409" unicode="&#xf409;" 
d="M1024 1664l640 -512l-128 -128v-512h-1024v512l-128 128zM1152 576v448h-256v-448h256z" />
    <glyph glyph-name="uniF501" unicode="&#xf501;" 
d="M0 128v1920l960 -960z" />
    <glyph glyph-name="uniF50D" unicode="&#xf50d;" 
d="M1024.13 896c-105.984 0 -192.128 86.0156 -192.128 192v512c0 105.856 86.1436 192 192.128 192c106.112 0 191.872 -86.1436 191.872 -192v-512c0 -105.984 -85.7598 -192 -191.872 -192zM1401.47 1024h192c-27.3916 -244.48 -206.464 -441.984 -441.472 -496v-272
h-256v272c-234.88 54.0156 -414.08 251.52 -441.472 496h192c30.5918 -181.504 187.52 -320 377.472 -320c190.208 0 347.008 138.496 377.472 320z" />
    <glyph glyph-name="uniF503" unicode="&#xf503;" 
d="M2048 2048v-1920l-960 960z" />
    <glyph glyph-name="uniF101" unicode="&#xf101;" 
d="M1024 1792c424.064 0 768 -343.936 768 -768s-343.936 -768 -768 -768s-768 343.936 -768 768s343.936 768 768 768zM1024 768c141.312 0 256 114.688 256 256s-114.688 256 -256 256s-256 -114.688 -256 -256s114.688 -256 256 -256z" />
    <glyph glyph-name="uniF204" unicode="&#xf204;" 
d="M1182.21 1271.81h328.704l-14.4639 -302.72h-314.24v-841.088h-320.128v841.088h-222.08v302.72h222.08v258.561c0 203.008 131.456 389.632 434.176 389.632c122.496 0 212.992 -11.6484 212.992 -11.6484l-7.04004 -282.624s-92.5439 0.640625 -193.536 0.640625
c-108.928 0 -126.464 -50.3037 -126.464 -133.504c0 -12.416 0 -15.3604 0 -13.9521v-207.104z" />
    <glyph glyph-name="uniF444" unicode="&#xf444;" 
d="M1600 640c-70.7842 0 -128 -57.2158 -128 -128s57.2158 -128 128 -128h64v-128h-1024c-141.312 0 -256 114.688 -256 256v1024c0 141.312 114.688 256 256 256h1024v-1152h-64zM640 384h817.92c-30.7197 34.0479 -49.9199 78.5918 -49.9199 128
s19.2002 93.9521 49.9199 128h-817.92c-70.6562 0 -128 -57.2158 -128 -128s57.3438 -128 128 -128z" />
    <glyph glyph-name="uniF416" unicode="&#xf416;" 
d="M1088 1792c176.768 0 320 -143.232 320 -320v-640c0 -247.424 -200.576 -448 -448 -448s-448 200.576 -448 448v320h128v-320c0 -176.768 143.232 -320 320 -320c176.64 0 320 143.232 320 320v640c0 105.984 -86.0156 192 -192 192c-106.112 0 -192 -86.0156 -192 -192
v-512c0 -35.3281 28.6719 -64 64 -64s64 28.6719 64 64v451.968h128v-451.968c0 -105.984 -86.0156 -192 -192 -192c-106.112 0 -192 86.0156 -192 192v512c0 176.768 143.232 320 320 320z" />
    <glyph glyph-name="uniF459" unicode="&#xf459;" 
d="M1920 1664v-1280l-768 480v-480l-1024 640l1024 640v-480z" />
    <glyph glyph-name="uniF441" unicode="&#xf441;" 
d="M1664 1024c141.312 0 256 -114.688 256 -256s-114.688 -256 -256 -256h-512v256h256l-384 384l-384 -384h256v-256h-512c-141.312 0 -256 114.688 -256 256s114.688 256 256 256h6.40039c-4.09668 20.7363 -6.40039 42.1123 -6.40039 64c0 176.768 143.232 320 320 320
c89.3438 0 169.984 -36.7363 227.968 -95.8721c60.7998 131.84 193.408 223.872 348.032 223.872c211.968 0 384 -171.904 384 -384c0 -45.1836 -9.21582 -87.8076 -23.5518 -128h23.5518z" />
    <glyph glyph-name="uniF506" unicode="&#xf506;" 
d="M768 1920l489.344 -489.472l-640 -640l-268.928 269.056c-49.792 49.792 -49.792 131.2 0 180.992l292.864 292.735l-1.28027 2.68848s128 128 128 384zM1738.24 565.76c33.1514 -32.7676 53.7598 -78.208 53.7598 -128.64c0 -99.9678 -81.1523 -181.12 -181.12 -181.12
c-50.4316 0 -95.7441 20.6084 -128.64 53.7598l-330.24 330.24v128l-64 64c-35.2002 35.2002 -104.704 23.2959 -154.496 -26.4961l-75.0078 -75.0078c-49.792 -49.792 -131.2 -49.792 -180.992 0l-14.8477 14.8477l640 640l14.8477 -14.8477
c49.792 -49.792 49.792 -131.2 0 -180.992l-75.0078 -75.0078c-49.792 -49.792 -61.6963 -119.296 -26.4961 -154.496l64 -64h128zM1610.88 373.12c35.3281 0 64 28.6719 64 64s-28.6719 64 -64 64s-64 -28.6719 -64 -64s28.6719 -64 64 -64z" />
    <glyph glyph-name="uniF105" unicode="&#xf105;" 
d="M1408 1408c0 -167.04 -107.264 -307.584 -256 -360.448v-535.552l-256 -128v663.552c-148.864 52.8643 -256 193.408 -256 360.448c0 212.096 171.904 384 384 384c211.968 0 384 -171.904 384 -384z" />
    <glyph glyph-name="uniF473" unicode="&#xf473;" 
d="M384 1664h1280v-1280h-1280v1280zM768 1408c-70.6562 0 -128 -57.3438 -128 -128s57.3438 -128 128 -128s128 57.3438 128 128s-57.3438 128 -128 128zM1536 512v576l-128 192l-448 -672l-192 288l-256 -384h1024z" />
    <glyph glyph-name="uniF452" unicode="&#xf452;" 
d="M512 1664l1024 -640l-1024 -640v1280z" />
    <glyph glyph-name="uniF408" unicode="&#xf408;" 
d="M1792 1150.72l-475.904 -329.983l182.528 -535.04l-474.624 331.903l-474.624 -331.903l182.528 535.04l-475.904 329.983l587.52 -1.02344l180.48 535.68l180.48 -535.68z" />
    <glyph glyph-name="uniF445" unicode="&#xf445;" 
d="M1888 748.032l-57.5996 -139.648l-305.408 21.8887c-31.3604 -39.9365 -66.9443 -75.6484 -106.88 -107.009l21.7598 -305.536l-139.264 -57.5996l-200.704 231.552c-25.2158 -3.07129 -49.9199 -7.67969 -75.9043 -7.67969c-25.7275 0 -50.1758 4.6084 -75.1357 7.67969
l-200.96 -231.808l-139.393 57.7275l21.7607 305.408c-39.9365 31.3604 -75.5205 66.9443 -107.009 106.88l-305.536 -21.7598l-57.7275 139.264l231.68 200.832c-3.07129 25.0879 -7.67969 49.792 -7.67969 75.7764c0 25.7275 4.6084 50.1758 7.55176 75.1357
l-231.552 200.96l57.7275 139.393l305.28 -21.7607c31.4883 39.9365 67.2002 75.7764 107.265 107.265l-21.7607 305.408l139.137 57.5996l200.96 -231.68c24.96 2.94336 49.5352 7.67969 75.3916 7.67969s50.4316 -4.73633 75.3916 -7.67969l200.96 231.68
l139.265 -57.5996l-21.8887 -305.408c39.9365 -31.3604 75.6484 -67.0723 107.137 -107.008l305.408 21.6318l57.5996 -139.136l-231.552 -200.832c3.07129 -25.0889 7.67969 -49.6641 7.67969 -75.6484c0 -25.7275 -4.6084 -50.3037 -7.67969 -75.2637zM1280 1024
c0 141.312 -114.688 256 -256 256s-256 -114.688 -256 -256s114.688 -256 256 -256s256 114.688 256 256z" />
    <glyph glyph-name="uniF517" unicode="&#xf517;" 
d="M1408 1152l384 384v-1024l-384 384v-256c0 -70.7842 -57.2158 -128 -128 -128h-896c-70.6562 0 -128 57.2158 -128 128v768c0 70.6562 57.3438 128 128 128h896c70.7842 0 128 -57.3438 128 -128v-256z" />
    <glyph glyph-name="uniF106" unicode="&#xf106;" 
d="M256 896v640h640v-640c0 -282.752 -229.248 -512 -512 -512v256c141.312 0 256 114.688 256 256h-384zM1152 1536h640v-640c0 -282.752 -229.248 -512 -512 -512v256c141.312 0 256 114.688 256 256h-384v640z" />
    <glyph glyph-name="uniF8B0" unicode="&#xf8b0;" 
d="M256 1408h1536v-768h-1536v768zM640 768v64h-256v-64h256zM640 1216v64h-256v-64h256zM1024 768c141.44 0 256 114.56 256 256s-114.56 256 -256 256s-256 -114.56 -256 -256s114.56 -256 256 -256zM1664 768v64h-256v-64h256zM1664 1216v64h-256v-64h256z" />
    <glyph glyph-name="uniF208" unicode="&#xf208;" 
d="M1664 1920c141.312 0 256 -114.688 256 -256v-1280c0 -141.312 -114.688 -256 -256 -256h-1280c-141.312 0 -256 114.688 -256 256v1280c0 141.312 114.688 256 256 256h1280zM663.168 384v792.96h-263.552v-792.96h263.552zM531.328 1285.25
c91.9043 0 149.12 60.9277 149.12 136.96c-1.66406 77.6963 -57.2158 136.96 -147.328 136.96c-90.2402 0 -149.12 -59.2637 -149.12 -136.96c0 -76.0322 57.2158 -136.96 145.664 -136.96h1.66406zM1613.44 384v454.656c0 243.456 -130.049 356.863 -303.488 356.863
c-139.776 0 -202.496 -76.9277 -237.44 -130.943v112.384h-263.552c3.45605 -74.3682 0 -792.96 0 -792.96h263.552v442.88c0 23.6797 1.79199 47.3604 8.57617 64.1279c19.0723 47.3604 62.4639 96.3838 135.296 96.3838c95.4883 0 133.504 -72.7031 133.504 -179.199
v-424.192h263.553z" />
    <glyph glyph-name="uniF304" unicode="&#xf304;" 
d="M1024 1152c-141.312 0 -256 114.688 -256 256s114.688 256 256 256s256 -114.688 256 -256s-114.688 -256 -256 -256zM1152 1024c211.968 0 384 -171.904 384 -384v-256h-1024v256c0 212.096 172.032 384 384 384h256z" />
    <glyph glyph-name="uniF8A6" unicode="&#xf8a6;" 
d="M1539.46 1712.51c139.392 0 252.544 -113.023 252.672 -252.544v-872.063c0 -139.393 -113.152 -252.416 -252.544 -252.416l-1031.04 -79.4883c-139.52 0 -252.544 113.024 -252.544 252.288v1031.17c0 139.52 113.024 252.544 252.544 252.544zM1396.35 1334.14
c20.6084 20.6084 32.2568 66.9443 32.3848 87.5527c0 36.0957 -28.416 56.7041 -81.1523 56.7041h-459.904c-63.1035 0 -104.319 -30.8486 -118.527 -98.0488l-145.152 -689.663c-18.0479 -81.1523 16.6396 -121.089 95.2324 -121.089h454.783
c41.0879 0 59.1367 6.40039 73.4727 20.4805c20.6074 21.8877 30.8477 66.8164 30.8477 88.832c0 34.8154 -27.0078 55.4238 -79.8721 55.4238h-376.063l45.4395 220.032h293.632c38.6562 0 55.2959 7.80762 68.2246 20.6074c19.3281 20.6084 28.416 63.2324 28.416 82.4326
c0 32.2559 -25.8564 52.8643 -74.752 52.8643h-281.984l44.2881 203.136h377.216c42.624 0 59.3926 5.24805 73.4717 20.7354z" />
    <glyph glyph-name="uniF430" unicode="&#xf430;" 
d="M1024 1453.31l86.6562 -86.6553l-342.656 -342.656h896v-128h-896l342.656 -342.656l-86.6562 -86.6553l-493.312 493.312z" />
    <glyph glyph-name="uniF225" unicode="&#xf225;" 
d="M655.104 1857.54l368.896 -307.968l-531.456 -328.192l-364.544 291.84zM128 929.536l364.544 291.84l531.456 -328.064l-368.896 -308.096zM1024 893.312l531.456 328.064l364.544 -291.84l-527.232 -344.32zM1920 1513.22l-364.544 -291.84l-531.456 328.192
l368.768 307.968zM1025.02 826.88l369.92 -306.944l158.464 103.297v-115.713l-528.384 -317.056l-528.257 317.056v115.713l158.336 -103.297z" />
    <glyph glyph-name="uniF103" unicode="&#xf103;" 
d="M1152 1408h896v-896h-896v896zM128 1024v384h896v-384h-896zM640 512v384h384v-384h-384zM128 512v384h384v-384h-384z" />
    <glyph glyph-name="uniF431" unicode="&#xf431;" 
d="M1408 1280l128 -128l-576 -576l-576 576l128 128l448 -448z" />
    </font>
</defs>
</svg>
